VERSION	0.00.00	1.03.00
FES_MODE	0
BPM_DEF	162.000	162.000	162.000	162.000
MET_DEF	4	4
RESOLUTION	384
CLK_DEF	384
COMPATIBLE_CODE	MA2

BPM	0	0	162.000

TAP	2	0	0
TAP	2	96	0
TAP	2	192	0
TAP	3	0	1
TAP	3	96	1
TAP	3	192	1
TAP	4	0	2
TAP	4	96	2
TAP	4	192	2
HLD	5	0	3	192
HLD	5	0	4	192
TAP	6	0	4
TAP	6	96	4
TAP	6	192	4
TAP	7	0	5
TAP	7	96	5
TAP	7	192	5
TAP	8	0	6
TAP	8	96	6
TAP	8	192	6
TAP	9	0	0
TAP	9	0	7
TAP	9	96	0
TAP	9	96	7
TAP	9	192	0
TAP	9	192	7
TAP	10	0	7
TAP	10	192	7
TAP	11	0	7
TAP	11	96	7
TAP	11	192	7
TAP	12	0	6
TAP	12	192	6
TAP	13	0	6
TAP	13	96	6
TAP	13	192	6
TAP	14	0	5
TAP	14	192	5
TAP	15	0	5
TAP	15	96	5
TAP	15	192	5
TAP	16	0	4
TAP	16	192	4
TAP	17	0	3
TAP	17	0	4
TAP	17	192	3
TAP	17	192	4
TAP	18	0	3
TAP	18	96	3
TAP	18	192	4
TAP	18	288	4
TAP	19	0	3
TAP	19	0	4
TAP	19	96	3
TAP	19	96	4
BRK	19	192	3
BRK	19	192	4
TAP	20	0	3
TAP	20	192	3
TAP	21	0	3
TAP	21	96	3
TAP	21	192	3
TAP	22	0	2
TAP	22	192	2
TAP	23	0	2
TAP	23	96	2
TAP	23	192	2
TAP	24	0	1
TAP	24	192	1
TAP	25	0	1
TAP	25	96	1
TAP	25	192	1
TAP	26	0	0
TAP	26	192	0
TAP	27	0	0
TAP	27	96	0
TAP	27	192	0
STR	28	0	0
SI_	28	0	0	96	288	3
STR	30	0	7
SI_	30	0	7	96	288	4
STR	32	0	0
SI_	32	0	0	96	288	3
TAP	34	0	6
TAP	34	0	7
TAP	34	192	6
TAP	34	192	7
TAP	35	0	0
TAP	35	96	0
TAP	35	192	7
BRK	35	288	7
TAP	36	0	0
TAP	36	192	0
TAP	37	0	1
TAP	37	192	1
TAP	38	0	2
TAP	38	192	2
TAP	39	0	3
TAP	39	96	3
TAP	39	192	4
TAP	39	288	4
TAP	40	0	3
TAP	40	192	3
TAP	41	0	4
TAP	41	192	4
TAP	42	0	5
TAP	42	192	5
HLD	43	0	6	192
BRK	44	0	7
TAP	44	96	7
TAP	44	192	7
TAP	45	0	6
TAP	45	96	6
TAP	45	192	6
TAP	46	0	5
TAP	46	96	5
TAP	46	192	5
TAP	47	0	3
TAP	47	0	4
TAP	47	96	3
TAP	47	96	4
BRK	47	192	3
BRK	47	192	4
TAP	48	0	3
TAP	48	96	3
TAP	48	192	3
TAP	49	0	2
TAP	49	96	2
TAP	49	192	2
TAP	50	0	1
TAP	50	96	1
TAP	50	192	1
HLD	51	0	0	192
HLD	51	0	7	192
TAP	52	0	0
TAP	52	96	0
TAP	52	192	0
TAP	53	0	1
TAP	53	96	1
TAP	53	192	1
TAP	54	0	2
TAP	54	96	2
TAP	54	192	2
TAP	55	0	3
TAP	55	0	4
TAP	55	96	3
TAP	55	96	4
BRK	55	192	3
BRK	55	192	4
TAP	56	0	4
TAP	56	96	4
TAP	56	192	4
TAP	57	0	5
TAP	57	96	5
TAP	57	192	5
TAP	58	0	6
TAP	58	96	6
TAP	58	192	6
TAP	59	0	0
TAP	59	0	7
TAP	59	96	0
TAP	59	96	7
TAP	59	192	1
TAP	59	192	6
STR	62	0	0
SI_	62	0	0	96	288	3
STR	64	0	7
SI_	64	0	7	96	288	4
TAP	66	0	0
TAP	66	192	0
TAP	67	0	1
TAP	67	192	1
TAP	68	0	2
TAP	68	96	2
TAP	68	192	2
HLD	69	0	3	192
HLD	69	0	4	192
TAP	70	0	4
TAP	70	96	4
TAP	70	192	4
TAP	71	0	5
TAP	71	96	5
TAP	71	192	4
TAP	71	192	5
TAP	72	0	6
TAP	72	96	6
TAP	72	192	7
TAP	72	288	7
TAP	73	0	0
TAP	73	96	7
TAP	73	192	0
TAP	74	0	7
TAP	74	96	7
TAP	74	192	7
TAP	75	0	0
TAP	75	96	0
TAP	75	192	0
TAP	76	0	1
TAP	76	96	1
TAP	76	192	2
TAP	76	288	2
HLD	77	0	3	192
HLD	77	0	4	192
TAP	78	0	3
TAP	78	96	3
TAP	78	192	3
TAP	79	0	2
TAP	79	96	2
TAP	79	192	2
TAP	79	192	3
TAP	80	0	1
TAP	80	96	1
TAP	80	192	0
TAP	80	288	0
TAP	81	0	7
TAP	81	96	0
TAP	81	192	7
TAP	82	0	0
TAP	82	96	0
TAP	82	192	0
TAP	83	0	7
TAP	83	96	7
TAP	83	192	7
TAP	84	0	6
TAP	84	96	6
TAP	84	192	5
TAP	84	288	5
TAP	85	0	3
TAP	85	0	4
TAP	85	96	3
TAP	85	96	4
BRK	85	192	2
BRK	85	192	5
TAP	86	0	1
TAP	86	192	1
TAP	87	0	0
TAP	87	192	0
TAP	88	0	7
TAP	88	192	7
TAP	89	0	6
TAP	89	96	6
TAP	89	192	6
TAP	90	0	5
TAP	90	192	5
TAP	91	0	4
TAP	91	192	4
TAP	92	0	3
TAP	92	192	3
TAP	93	0	2
TAP	93	96	2
TAP	93	192	2
STR	94	0	1
SI_	94	0	1	96	288	5

T_REC_TAP	222
T_REC_BRK	10
T_REC_XTP	0
T_REC_HLD	9
T_REC_XHO	0
T_REC_STR	6
T_REC_BST	0
T_REC_XST	0
T_REC_TTP	0
T_REC_THO	0
T_REC_SLD	6
T_REC_ALL	253
T_NUM_TAP	228
T_NUM_BRK	10
T_NUM_HLD	9
T_NUM_SLD	6
T_NUM_ALL	253
T_JUDGE_TAP	238
T_JUDGE_HLD	36
T_JUDGE_SLD	6
T_JUDGE_ALL	280
TTM_EACHPAIRS	28
TTM_SCR_TAP	114000
TTM_SCR_BRK	26000
TTM_SCR_HLD	9000
TTM_SCR_SLD	9000
TTM_SCR_ALL	158000
TTM_SCR_S	152300
TTM_SCR_SS	157000
TTM_RAT_ACV	10063

