VERSION	0.00.00	1.03.00
FES_MODE	0
BPM_DEF	182.000	182.000	182.000	182.000
MET_DEF	4	4
RESOLUTION	384
CLK_DEF	384
COMPATIBLE_CODE	MA2

BPM	0	0	182.000
MET	0	0	4	4

TAP	1	240	2
TAP	1	264	3
TAP	1	288	2
STR	2	0	4
SXL	2	0	4	96	96	4
STR	2	96	4
SXR	2	96	4	96	120	4
TAP	3	0	6
TAP	3	48	5
TAP	3	96	1
TAP	3	96	4
TAP	3	144	2
TAP	3	192	3
TAP	3	192	6
BST	3	288	1
SXL	3	288	1	96	96	2
BST	3	288	7
SXR	3	288	7	96	96	6
BRK	4	0	1
BRK	4	0	7
TAP	4	144	0
TAP	4	168	7
TAP	4	192	0
TAP	4	288	1
TAP	4	288	6
STR	5	0	0
SV_	5	0	0	96	48	3
SV_	5	0	0	96	48	5
TAP	5	192	2
TAP	5	192	6
TAP	5	288	4
TAP	5	288	5
STR	5	336	4
SUL	5	336	4	96	240	1
STR	5	336	5
SXL	5	336	5	96	240	0
TAP	7	0	2
STR	7	0	3
SI_	7	0	3	96	48	7
STR	7	96	2
SCL	7	96	2	96	96	5
SUL	7	96	2	96	96	5
TAP	8	0	4
TAP	8	48	5
TAP	8	96	2
TAP	8	144	1
STR	8	192	6
SI_	8	192	6	96	48	3
STR	8	288	2
SI_	8	288	2	96	48	7
STR	9	0	6
SCL	9	0	6	96	48	3
STR	9	96	2
SCL	9	96	2	96	96	6
SUL	9	96	2	96	96	6
STR	10	0	5
SCR	10	0	5	96	48	0
STR	10	96	3
SI_	10	96	3	96	48	7
STR	10	192	4
SI_	10	192	4	96	48	7
STR	10	288	2
SI_	10	288	2	96	48	7
STR	11	0	3
SI_	11	0	3	96	48	7
STR	11	96	2
SCL	11	96	2	96	96	5
SUL	11	96	2	96	96	5
TAP	12	0	5
TAP	12	24	4
TAP	12	48	6
TAP	12	96	2
TAP	12	120	3
TAP	12	144	1
TAP	12	192	0
TAP	12	192	1
TAP	12	240	2
TAP	12	240	7
TAP	12	288	3
TAP	12	288	6
TAP	12	336	4
TAP	12	336	5
BRK	13	48	6
BRK	13	48	7
BRK	13	96	0
BRK	13	96	5
BRK	13	192	0
BRK	13	192	1
BRK	13	240	2
BRK	13	240	7
TAP	14	0	4
HLD	14	0	5	96
TAP	14	96	6
HLD	14	192	6	96
TAP	14	192	7
TAP	14	288	5
HLD	15	0	3	96
HLD	15	96	2	96
STR	15	192	1
SI_	15	192	1	96	48	5
TAP	15	288	6
STR	16	0	7
SCL	16	0	7	96	48	4
TAP	16	96	1
TAP	16	144	0
STR	16	192	7
SCR	16	192	7	96	48	2
TAP	16	288	5
TAP	16	336	6
STR	17	0	7
SUL	17	0	7	96	48	3
SUR	17	0	7	96	48	3
TAP	17	192	1
TAP	17	192	5
STR	17	288	6
SXR	17	288	6	96	48	4
STR	18	0	0
SXL	18	0	0	96	48	2
STR	18	96	7
SXR	18	96	7	96	48	5
STR	18	192	1
SXL	18	192	1	96	48	3
STR	18	288	6
SXR	18	288	6	96	48	4
STR	19	0	0
SXL	19	0	0	96	48	2
STR	19	96	7
SXR	19	96	7	96	48	5
STR	19	192	1
SXL	19	192	1	96	48	3
TAP	19	288	6
HLD	20	0	0	96
HLD	20	0	5	96
HLD	20	192	2	96
HLD	20	192	7	96
TAP	20	336	0
TAP	20	336	1
TAP	21	48	3
TAP	21	48	6
TAP	21	96	3
TAP	21	96	6
HLD	21	192	1	48
HLD	21	288	6	48
TAP	22	0	4
HLD	22	0	5	96
TAP	22	96	0
TAP	22	192	0
TAP	22	240	1
TAP	22	288	2
TAP	22	288	7
TAP	23	0	3
TAP	23	0	5
STR	23	48	4
SF_	23	48	4	96	72	0
TAP	23	288	2
TAP	23	288	6
HLD	24	0	2	96
TAP	24	0	3
TAP	24	96	7
TAP	24	192	7
TAP	24	240	6
TAP	24	288	0
TAP	24	288	5
HLD	25	0	5	48
HLD	25	48	4	48
HLD	25	96	3	48
TAP	25	144	2
TAP	25	240	0
TAP	25	240	1
TAP	25	288	2
TAP	25	288	7
HLD	26	0	5	96
TAP	26	0	7
TAP	26	96	3
TAP	26	192	3
TAP	26	240	2
TAP	26	288	1
TAP	26	288	4
TAP	27	0	0
TAP	27	48	0
TAP	27	96	7
TAP	27	144	0
TAP	27	192	1
TAP	27	192	6
STR	27	288	3
SXR	27	288	3	96	48	1
TAP	27	288	4
STR	28	0	3
SXL	28	0	3	96	48	5
STR	28	96	3
SCL	28	96	3	96	48	0
STR	28	192	3
SCR	28	192	3	96	48	6
STR	28	288	3
SV_	28	288	3	96	48	0
STR	29	0	3
SV_	29	0	3	96	48	6
TAP	29	96	3
TAP	29	192	0
TAP	29	240	0
STR	29	288	1
SXL	29	288	1	96	168	4
STR	29	288	7
SXR	29	288	7	96	168	4
STR	30	240	7
SXL	30	240	7	96	192	3
SXR	30	240	7	96	192	3
TAP	31	288	2
TAP	31	288	4
TAP	32	0	5
TAP	32	24	4
TAP	32	48	5
TAP	32	96	2
TAP	32	120	3
TAP	32	144	2
TAP	32	192	6
TAP	32	216	4
TAP	32	240	6
TAP	32	288	1
TAP	32	312	3
TAP	32	336	1
TAP	33	0	7
TAP	33	24	0
TAP	33	48	7
TAP	33	72	0
TAP	33	96	7
TAP	33	120	0
TAP	33	144	7
TAP	33	168	0
TAP	33	192	7
TAP	33	288	1
TAP	33	288	6
TAP	34	0	2
TAP	34	0	3
TAP	34	48	1
TAP	34	72	0
TAP	34	144	3
TAP	34	192	4
TAP	34	192	5
TAP	34	240	6
TAP	34	264	7
TAP	34	336	4
STR	35	0	2
SI_	35	0	2	96	48	7
TAP	35	0	3
TAP	35	48	2
STR	35	96	3
SCR	35	96	3	96	96	7
TAP	35	144	3
TAP	35	192	1
TAP	35	336	0
STR	36	0	7
SI_	36	0	7	96	48	3
TAP	36	48	7
STR	36	96	1
SI_	36	96	1	96	48	4
TAP	36	144	1
HLD	36	192	5	72
HLD	36	264	7	72
TAP	36	336	6
HLD	37	0	2	72
HLD	37	72	0	72
TAP	37	144	1
TAP	37	192	2
TAP	37	192	7
STR	37	288	2
SI_	37	288	2	96	48	6
TAP	37	288	4
STR	38	0	3
SCR	38	0	3	96	48	6
STR	38	96	1
SCL	38	96	1	96	48	7
TAP	38	192	4
TAP	38	240	5
STR	38	288	5
SI_	38	288	5	96	48	1
STR	39	0	4
SCL	39	0	4	96	48	1
STR	39	96	6
SCR	39	96	6	96	48	0
TAP	39	192	3
TAP	39	240	2
STR	39	288	2
SI_	39	288	2	96	48	7
STR	40	0	4
SI_	40	0	4	96	48	7
TAP	40	96	1
STR	40	192	3
SI_	40	192	3	96	48	0
SI_	40	192	3	96	48	6
STR	41	0	7
SI_	41	0	7	96	48	5
STR	41	48	7
SI_	41	48	7	96	48	1
STR	41	96	7
SF_	41	96	7	96	72	3
HLD	42	0	5	72
TAP	42	72	4
TAP	42	144	3
TAP	42	144	6
HLD	42	192	5	72
TAP	42	264	4
TAP	42	336	2
TAP	42	336	7
TAP	43	0	1
TAP	43	48	2
TAP	43	96	3
TAP	43	96	6
TAP	43	144	5
TAP	43	192	1
TAP	43	192	4
STR	43	288	0
SLR	43	288	0	96	96	7
STR	43	288	6
SLL	43	288	6	96	96	7
TAP	44	144	0
TAP	44	168	7
TAP	44	192	0
TAP	44	288	5
TAP	44	288	7
STR	45	0	2
SCL	45	0	2	96	48	7
TAP	45	0	7
STR	45	96	6
SCL	45	96	6	96	48	3
BST	45	192	0
SI_	45	192	0	96	48	4
BRK	45	288	0
STR	46	0	3
SXR	46	0	3	96	96	3
HLD	46	0	7	384
STR	46	96	3
SXL	46	96	3	96	96	3
TAP	47	0	2
TAP	47	48	1
TAP	47	96	0
TAP	47	96	5
TAP	47	144	6
TAP	47	192	2
TAP	47	192	7
BST	47	288	0
SXR	47	288	0	96	96	7
BST	47	288	1
SXL	47	288	1	96	96	2
BRK	48	0	0
BRK	48	0	1
TAP	48	144	0
TAP	48	168	7
TAP	48	192	0
TAP	48	288	1
TAP	48	288	6
STR	49	0	7
SV_	49	0	7	96	48	2
SV_	49	0	7	96	48	4
TAP	49	192	1
TAP	49	192	5
TAP	49	288	2
TAP	49	288	3
STR	49	336	2
SXR	49	336	2	96	240	7
STR	49	336	3
SUR	49	336	3	96	240	6
STR	51	0	4
SI_	51	0	4	96	48	1
TAP	51	0	5
STR	51	96	5
SCR	51	96	5	96	96	2
SUR	51	96	5	96	96	2
TAP	52	0	3
TAP	52	0	6
TAP	52	48	2
TAP	52	96	1
TAP	52	96	5
TAP	52	144	6
STR	52	192	1
SCR	52	192	1	96	48	4
TAP	52	192	7
STR	52	288	5
SCR	52	288	5	96	48	0
STR	53	0	1
SUR	53	0	1	96	72	6
STR	53	96	5
SCR	53	96	5	96	96	2
SUR	53	96	5	96	96	2
STR	54	0	2
SCL	54	0	2	96	48	7
STR	54	96	4
SUR	54	96	4	96	48	0
STR	54	192	3
SXR	54	192	3	96	48	1
STR	54	288	5
SCR	54	288	5	96	48	0
STR	55	0	4
SI_	55	0	4	96	48	1
STR	55	96	5
SCR	55	96	5	96	96	2
SUR	55	96	5	96	96	2
TAP	56	0	2
TAP	56	24	3
TAP	56	48	1
TAP	56	96	5
TAP	56	120	4
TAP	56	144	6
TAP	56	192	6
TAP	56	192	7
TAP	56	240	0
TAP	56	240	5
TAP	56	288	1
TAP	56	288	4
TAP	56	336	2
TAP	56	336	3
BRK	57	48	0
BRK	57	48	1
BRK	57	96	2
BRK	57	96	7
BRK	57	192	6
BRK	57	192	7
BRK	57	240	0
BRK	57	240	5
HLD	58	0	2	192
HLD	58	192	3	192
TAP	59	0	4
TAP	59	96	3
TAP	59	192	2
TAP	59	192	5
HLD	60	0	5	192
HLD	60	192	4	192
STR	61	0	3
SCR	61	0	3	96	96	5
TAP	61	192	2
HLD	62	0	2	288
TAP	62	96	4
TAP	62	192	3
TAP	62	288	5
HLD	63	0	6	288
TAP	63	96	3
TAP	63	192	4
TAP	63	288	1
HLD	64	0	1	96
HLD	64	96	3	96
HLD	64	192	4	96
HLD	64	288	7	96
BRK	65	0	4
BST	65	48	7
SI_	65	48	7	96	48	4
BST	65	96	4
SF_	65	96	4	96	72	0
BRK	65	144	7
TAP	66	0	4
TAP	66	0	5
TAP	66	48	6
TAP	66	72	7
TAP	66	144	4
TAP	66	192	2
TAP	66	192	3
TAP	66	240	1
TAP	66	264	0
TAP	66	336	3
STR	67	0	3
SI_	67	0	3	96	48	1
STR	67	0	7
SI_	67	0	7	96	48	5
TAP	67	96	3
STR	67	96	7
SF_	67	96	7	96	72	3
BRK	67	192	7
TAP	67	336	7
STR	68	0	0
SI_	68	0	0	96	48	4
TAP	68	48	0
STR	68	96	6
SI_	68	96	6	96	48	3
TAP	68	144	6
HLD	68	192	2	72
HLD	68	264	0	72
TAP	68	336	1
HLD	69	0	5	72
HLD	69	72	7	72
TAP	69	144	6
TAP	69	192	0
TAP	69	192	5
TAP	69	288	3
STR	69	288	5
SI_	69	288	5	96	48	1
STR	70	0	4
SCL	70	0	4	96	48	1
STR	70	96	6
SCR	70	96	6	96	48	0
TAP	70	192	3
TAP	70	240	2
STR	70	288	2
SI_	70	288	2	96	48	6
STR	71	0	3
SCR	71	0	3	96	48	6
STR	71	96	1
SCL	71	96	1	96	48	7
TAP	71	192	4
TAP	71	240	5
STR	71	288	5
SUR	71	288	5	96	48	1
STR	72	0	4
SCL	72	0	4	96	48	2
TAP	72	48	4
STR	72	96	6
SCR	72	96	6	96	48	0
TAP	72	144	6
STR	72	192	5
SI_	72	192	5	96	48	1
TAP	72	240	5
TAP	72	288	7
TAP	72	336	7
STR	73	0	0
SUL	73	0	0	96	48	3
STR	73	48	7
SCL	73	48	7	96	48	4
TAP	73	96	0
TAP	73	144	7
TAP	73	240	1
STR	73	288	2
SUL	73	288	2	96	48	6
TAP	73	336	2
STR	74	0	3
SCR	74	0	3	96	48	5
TAP	74	48	3
STR	74	96	1
SCL	74	96	1	96	48	7
TAP	74	144	1
STR	74	192	2
SI_	74	192	2	96	48	6
TAP	74	240	2
TAP	74	288	0
TAP	74	336	0
STR	75	0	7
SI_	75	0	7	96	48	3
STR	75	48	0
SCL	75	48	0	96	144	3
TAP	75	96	7
TAP	75	144	0
HLD	76	0	2	72
TAP	76	72	3
TAP	76	144	1
TAP	76	144	4
HLD	76	192	2	72
TAP	76	264	3
TAP	76	336	0
TAP	76	336	5
TAP	77	0	6
TAP	77	48	5
TAP	77	96	0
TAP	77	96	4
TAP	77	144	1
TAP	77	192	2
TAP	77	192	6
STR	77	288	1
SLR	77	288	1	96	96	0
STR	77	288	7
SLL	77	288	7	96	96	0
TAP	78	144	7
TAP	78	168	0
TAP	78	192	7
TAP	78	288	0
TAP	78	288	2
STR	79	0	6
SCR	79	0	6	96	48	1
TAP	79	0	7
STR	79	96	2
SCR	79	96	2	96	48	5
BST	79	192	7
SI_	79	192	7	96	48	3
BRK	79	288	7
HLD	80	0	0	384
STR	80	0	4
SXL	80	0	4	96	96	4
STR	80	96	4
SXR	80	96	4	96	96	4
TAP	81	0	5
TAP	81	48	6
TAP	81	96	3
TAP	81	96	7
TAP	81	144	2
TAP	81	192	1
TAP	81	192	5
BST	81	288	6
SXR	81	288	6	96	96	5
BST	81	288	7
SXL	81	288	7	96	96	0
BRK	82	0	6
BRK	82	0	7
TAP	82	144	7
TAP	82	168	0
TAP	82	192	7
TAP	82	288	1
TAP	82	288	6
STR	83	0	0
SV_	83	0	0	96	48	3
SV_	83	0	0	96	48	5
TAP	83	192	2
TAP	83	192	6
TAP	83	288	4
TAP	83	288	6
STR	83	336	4
SCL	83	336	4	96	80	0
STR	83	336	6
SUL	83	336	6	96	80	0
TAP	84	48	4
TAP	84	48	6
TAP	84	192	1
TAP	84	192	7
TAP	84	240	2
TAP	84	240	6
TAP	84	336	0
TAP	84	336	7
STR	85	48	3
SXR	85	48	3	96	144	2
STR	85	48	4
SXL	85	48	4	96	144	5
TAP	85	96	3
TAP	85	96	4
BRK	85	144	3
BRK	85	144	4

T_REC_TAP	297
T_REC_BRK	29
T_REC_XTP	0
T_REC_HLD	40
T_REC_XHO	0
T_REC_STR	111
T_REC_BST	10
T_REC_XST	0
T_REC_TTP	0
T_REC_THO	0
T_REC_SLD	133
T_REC_ALL	620
T_NUM_TAP	408
T_NUM_BRK	39
T_NUM_HLD	40
T_NUM_SLD	133
T_NUM_ALL	620
T_JUDGE_TAP	447
T_JUDGE_HLD	103
T_JUDGE_SLD	133
T_JUDGE_ALL	683
TTM_EACHPAIRS	103
TTM_SCR_TAP	204000
TTM_SCR_BRK	101400
TTM_SCR_HLD	40000
TTM_SCR_SLD	199500
TTM_SCR_ALL	544900
TTM_SCR_S	524800
TTM_SCR_SS	541000
TTM_RAT_ACV	10072

