VERSION	0.00.00	1.03.00
FES_MODE	0
BPM_DEF	182.000	182.000	182.000	182.000
MET_DEF	4	4
RESOLUTION	384
CLK_DEF	384
COMPATIBLE_CODE	MA2

BPM	0	0	182.000
MET	0	0	4	4

HLD	2	0	4	96
HLD	2	0	5	96
HLD	2	192	2	96
HLD	2	192	3	96
STR	3	0	4
SI_	3	0	4	96	96	0
STR	3	0	5
SI_	3	0	5	96	96	0
TAP	3	288	0
BRK	4	0	1
BRK	4	0	7
TAP	4	192	2
TAP	4	288	1
TAP	4	288	3
TAP	5	0	1
TAP	5	0	3
TAP	5	96	2
TAP	5	96	4
TAP	5	192	3
TAP	5	192	5
STR	5	288	4
SCL	5	288	4	96	240	1
STR	5	288	6
SUL	5	288	6	96	240	0
HLD	7	0	0	96
HLD	7	0	1	96
TAP	7	192	2
TAP	7	192	7
TAP	8	0	1
TAP	8	96	2
TAP	8	192	3
TAP	8	192	4
TAP	8	288	5
HLD	9	0	6	96
TAP	9	96	7
TAP	9	192	0
TAP	9	192	5
TAP	10	0	2
TAP	10	0	3
TAP	10	96	1
TAP	10	192	4
TAP	10	192	5
TAP	10	288	6
HLD	11	0	6	96
HLD	11	0	7	96
TAP	11	192	0
TAP	11	192	5
TAP	12	0	6
TAP	12	96	5
TAP	12	192	3
TAP	12	192	4
TAP	12	288	2
TAP	12	336	2
HLD	13	48	0	144
HLD	13	48	1	144
TAP	14	0	5
TAP	14	96	4
TAP	14	96	5
TAP	14	192	3
TAP	14	288	3
TAP	14	288	4
STR	15	0	5
SCL	15	0	5	96	120	2
TAP	16	0	2
TAP	16	96	2
TAP	16	96	3
TAP	16	192	4
TAP	16	288	3
TAP	16	288	4
HLD	17	0	2	96
HLD	17	0	3	96
TAP	17	192	1
TAP	17	192	4
TAP	18	0	0
TAP	18	0	1
TAP	18	96	0
TAP	18	96	1
TAP	18	192	6
TAP	18	192	7
TAP	18	288	6
TAP	18	288	7
TAP	19	0	0
TAP	19	0	1
TAP	19	96	6
TAP	19	96	7
TAP	19	192	0
TAP	19	192	7
TAP	20	0	1
TAP	20	0	6
STR	20	192	3
SCL	20	192	3	96	288	6
TAP	20	192	4
TAP	22	0	3
TAP	22	0	4
TAP	22	96	5
TAP	22	192	3
TAP	22	240	3
TAP	22	288	6
STR	23	0	3
SF_	23	0	3	96	120	7
TAP	23	0	4
TAP	24	0	3
TAP	24	0	4
TAP	24	96	2
TAP	24	192	4
TAP	24	240	4
TAP	24	288	1
TAP	25	0	2
TAP	25	48	2
TAP	25	96	3
TAP	25	144	3
TAP	25	240	1
TAP	25	240	4
TAP	25	288	1
TAP	25	288	4
TAP	26	0	4
TAP	26	0	5
TAP	26	96	6
TAP	26	192	4
TAP	26	240	4
TAP	26	288	1
STR	27	0	3
SI_	27	0	3	96	96	0
STR	27	0	4
SI_	27	0	4	96	96	7
TAP	27	288	1
TAP	27	288	6
BRK	28	0	0
BRK	28	96	7
BRK	28	192	0
BRK	28	192	1
BRK	28	288	6
BRK	28	288	7
BRK	29	0	0
BRK	29	0	2
BRK	29	96	5
BRK	29	96	7
TAP	29	192	0
TAP	29	240	7
STR	29	288	1
SLR	29	288	1	96	192	5
STR	30	240	6
SLL	30	240	6	96	192	2
TAP	31	192	1
TAP	31	288	0
TAP	31	288	2
HLD	32	0	2	96
HLD	32	96	3	96
HLD	32	192	4	96
HLD	32	288	5	96
HLD	33	0	6	96
HLD	33	96	7	96
TAP	33	192	0
BRK	33	288	1
BRK	33	288	6
TAP	34	0	2
HLD	34	0	3	96
TAP	34	96	1
HLD	34	192	4	96
TAP	34	192	5
TAP	34	288	6
TAP	35	0	1
TAP	35	0	4
TAP	35	96	2
TAP	35	96	3
BRK	35	192	0
BRK	35	192	5
TAP	36	0	1
TAP	36	0	7
STR	36	96	0
SUL	36	96	0	96	120	4
SUR	36	96	0	96	120	4
TAP	37	0	3
TAP	37	0	5
TAP	37	96	4
TAP	37	192	2
TAP	37	192	6
TAP	38	0	1
HLD	38	0	3	96
STR	38	96	2
SI_	38	96	2	96	72	7
HLD	39	0	4	96
TAP	39	0	6
STR	39	96	5
SI_	39	96	5	96	72	0
HLD	40	0	0	96
HLD	40	96	1	96
HLD	40	192	2	96
HLD	40	288	3	96
STR	41	0	4
SF_	41	0	4	96	144	0
TAP	42	0	4
TAP	42	0	5
TAP	42	96	4
TAP	42	96	5
TAP	42	192	2
TAP	42	192	3
TAP	42	288	2
TAP	42	288	3
TAP	43	0	4
TAP	43	0	5
TAP	43	96	2
TAP	43	96	3
TAP	43	192	1
TAP	43	288	0
TAP	43	288	7
TAP	44	0	1
TAP	44	0	6
HLD	44	192	5	96
TAP	44	288	4
HLD	45	0	2	96
TAP	45	96	3
BRK	45	192	0
BRK	45	288	0
TAP	46	0	2
TAP	46	0	3
TAP	46	96	2
TAP	46	96	3
TAP	46	192	4
TAP	46	192	5
TAP	46	288	4
TAP	46	288	5
STR	47	0	2
SI_	47	0	2	96	96	7
STR	47	0	3
SI_	47	0	3	96	96	7
TAP	47	288	7
BRK	48	0	0
BRK	48	0	6
TAP	48	192	5
TAP	48	288	4
TAP	48	288	6
TAP	49	0	4
TAP	49	0	6
TAP	49	96	3
TAP	49	96	5
TAP	49	192	2
TAP	49	192	4
STR	49	288	1
SUR	49	288	1	96	288	7
STR	49	288	3
SCR	49	288	3	96	288	6
HLD	51	0	0	96
HLD	51	0	7	96
TAP	51	192	1
TAP	51	192	6
TAP	52	0	6
TAP	52	0	7
TAP	52	96	5
TAP	52	192	3
TAP	52	192	4
TAP	52	288	2
TAP	53	0	1
TAP	53	96	0
TAP	53	96	1
TAP	53	192	2
TAP	53	192	7
TAP	54	0	4
TAP	54	0	5
TAP	54	96	7
TAP	54	192	2
TAP	54	192	3
TAP	54	288	0
HLD	55	0	0	96
HLD	55	0	7	96
TAP	55	192	1
TAP	55	192	6
TAP	56	0	0
TAP	56	0	1
TAP	56	96	2
TAP	56	192	3
TAP	56	192	4
TAP	56	288	5
TAP	56	336	5
HLD	57	48	6	144
HLD	57	48	7	144
HLD	58	0	5	192
HLD	58	192	4	192
HLD	59	0	3	192
HLD	59	192	2	192
HLD	60	0	3	192
HLD	60	192	4	192
TAP	61	0	5
TAP	61	192	4
TAP	61	192	5
TAP	62	0	5
TAP	62	96	4
TAP	62	192	2
TAP	62	192	3
TAP	63	0	2
TAP	63	96	3
TAP	63	192	4
TAP	63	192	5
TAP	64	0	4
TAP	64	96	2
TAP	64	96	3
TAP	64	192	3
TAP	64	288	4
TAP	64	288	5
TAP	65	0	2
STR	65	0	3
SF_	65	0	3	96	144	7
HLD	66	0	4	96
TAP	66	0	5
TAP	66	96	7
TAP	66	192	2
HLD	66	192	3	96
TAP	66	288	0
TAP	67	0	1
TAP	67	0	4
STR	67	96	2
SI_	67	96	2	96	96	7
STR	67	96	3
SI_	67	96	3	96	96	6
TAP	68	0	0
TAP	68	0	6
STR	68	96	7
SCL	68	96	7	96	96	4
SCR	68	96	7	96	96	2
TAP	69	0	1
TAP	69	0	4
TAP	69	96	2
TAP	69	96	3
TAP	69	192	0
TAP	69	192	5
HLD	70	0	4	96
TAP	70	0	6
STR	70	96	5
SCR	70	96	5	96	96	0
TAP	71	0	1
HLD	71	0	3	96
STR	71	96	2
SCL	71	96	2	96	96	7
HLD	72	0	6	96
HLD	72	96	4	96
HLD	72	192	3	96
HLD	72	288	1	96
TAP	73	0	0
TAP	73	48	0
TAP	73	144	1
TAP	73	144	7
TAP	73	240	0
TAP	73	288	0
HLD	74	0	1	96
HLD	74	96	3	96
HLD	74	192	4	96
HLD	74	288	6	96
TAP	75	0	7
STR	75	48	7
SI_	75	48	7	96	96	2
SI_	75	48	7	96	96	4
TAP	76	0	1
TAP	76	0	3
TAP	76	96	1
TAP	76	96	3
TAP	76	192	4
TAP	76	192	6
TAP	76	288	4
TAP	76	288	6
TAP	77	0	1
TAP	77	0	3
TAP	77	96	4
TAP	77	96	6
TAP	77	192	7
TAP	77	288	0
TAP	77	288	7
TAP	78	0	1
TAP	78	0	6
HLD	78	192	2	96
TAP	78	288	3
HLD	79	0	5	96
TAP	79	96	4
BRK	79	192	7
BRK	79	288	7
TAP	80	0	4
TAP	80	0	6
TAP	80	96	4
TAP	80	96	6
TAP	80	192	1
TAP	80	192	3
TAP	80	288	1
TAP	80	288	3
STR	81	0	4
SI_	81	0	4	96	120	1
SI_	81	0	4	96	120	7
TAP	81	0	6
TAP	81	288	0
BRK	82	0	2
BRK	82	0	6
TAP	82	192	1
TAP	82	288	0
TAP	82	288	3
TAP	83	0	0
TAP	83	0	3
TAP	83	96	1
TAP	83	96	4
TAP	83	192	2
TAP	83	192	5
STR	83	288	3
SF_	83	288	3	96	192	7
TAP	83	288	6
TAP	84	336	0
TAP	84	336	7
TAP	85	48	3
TAP	85	48	4
BRK	85	144	1
BRK	85	144	6

T_REC_TAP	266
T_REC_BRK	26
T_REC_XTP	0
T_REC_HLD	55
T_REC_XHO	0
T_REC_STR	28
T_REC_BST	0
T_REC_XST	0
T_REC_TTP	0
T_REC_THO	0
T_REC_SLD	32
T_REC_ALL	407
T_NUM_TAP	294
T_NUM_BRK	26
T_NUM_HLD	55
T_NUM_SLD	32
T_NUM_ALL	407
T_JUDGE_TAP	320
T_JUDGE_HLD	126
T_JUDGE_SLD	32
T_JUDGE_ALL	478
TTM_EACHPAIRS	129
TTM_SCR_TAP	147000
TTM_SCR_BRK	67600
TTM_SCR_HLD	55000
TTM_SCR_SLD	48000
TTM_SCR_ALL	317600
TTM_SCR_S	305550
TTM_SCR_SS	315000
TTM_RAT_ACV	10082

