VERSION	0.00.00	1.03.00
FES_MODE	0
BPM_DEF	182.000	182.000	182.000	182.000
MET_DEF	4	4
RESOLUTION	384
CLK_DEF	384
COMPATIBLE_CODE	MA2

BPM	0	0	182.000

HLD	2	0	0	96
HLD	2	0	1	96
HLD	2	192	6	96
HLD	2	192	7	96
TAP	3	0	0
TAP	3	0	7
TAP	3	96	0
TAP	3	96	7
TAP	3	192	1
TAP	3	192	6
TAP	3	288	0
TAP	3	288	7
STR	4	0	0
SCR	4	0	0	96	192	3
STR	4	0	7
SCL	4	0	7	96	192	4
TAP	5	0	3
TAP	5	0	4
TAP	5	96	3
TAP	5	96	4
TAP	5	192	2
TAP	5	192	5
TAP	6	0	6
TAP	6	96	6
TAP	6	192	6
TAP	6	192	7
TAP	7	0	1
TAP	7	96	1
TAP	7	192	0
TAP	7	192	1
TAP	8	0	2
TAP	8	96	3
TAP	8	192	5
TAP	8	288	4
TAP	9	0	3
TAP	9	0	4
TAP	9	96	3
TAP	9	96	4
TAP	9	192	2
TAP	9	192	5
TAP	10	0	2
TAP	10	96	2
TAP	10	192	2
TAP	10	192	3
TAP	11	0	5
TAP	11	96	5
TAP	11	192	4
TAP	11	192	5
TAP	12	0	6
TAP	12	96	7
TAP	12	192	1
TAP	12	288	0
HLD	13	0	0	96
HLD	13	0	7	96
BRK	13	192	1
BRK	13	192	6
TAP	14	0	5
TAP	14	96	5
TAP	14	192	4
TAP	14	288	4
TAP	15	0	3
TAP	15	96	3
TAP	15	192	3
TAP	15	192	4
TAP	16	0	2
TAP	16	96	2
TAP	16	192	3
TAP	16	288	3
TAP	17	0	4
TAP	17	96	4
TAP	17	192	3
TAP	17	192	4
STR	18	0	1
SCR	18	0	1	96	192	4
STR	19	0	5
SCR	19	0	5	96	192	0
TAP	20	0	0
TAP	20	0	1
TAP	20	192	6
TAP	20	192	7
TAP	21	0	0
TAP	21	0	7
TAP	21	96	0
TAP	21	96	7
BRK	21	192	1
BRK	21	192	6
HLD	22	0	5	192
TAP	22	192	4
TAP	23	0	5
TAP	23	96	4
TAP	23	192	4
TAP	23	192	5
HLD	24	0	2	192
TAP	24	192	3
TAP	25	0	2
TAP	25	96	3
TAP	25	192	2
TAP	25	192	3
HLD	26	0	1	192
TAP	26	192	0
TAP	27	0	1
TAP	27	96	0
TAP	27	192	0
TAP	27	192	1
TAP	28	0	7
TAP	28	96	6
TAP	28	192	5
TAP	28	288	4
TAP	29	0	3
TAP	29	96	2
TAP	29	192	1
TAP	29	288	0
HLD	30	0	0	96
HLD	30	0	7	96
TAP	30	192	0
TAP	30	192	7
TAP	30	288	0
TAP	30	288	7
TAP	31	0	1
TAP	31	0	6
TAP	31	96	2
TAP	31	96	5
TAP	31	192	3
TAP	31	192	4
TAP	32	0	1
TAP	32	96	1
TAP	32	192	0
TAP	32	288	0
TAP	33	0	7
TAP	33	96	7
BRK	33	192	0
BRK	33	192	7
TAP	34	0	6
TAP	34	0	7
TAP	34	96	6
TAP	34	96	7
TAP	34	192	0
TAP	34	192	1
TAP	34	288	0
TAP	34	288	1
TAP	35	0	6
TAP	35	0	7
TAP	35	96	6
TAP	35	96	7
TAP	35	192	0
TAP	35	192	5
TAP	36	0	6
TAP	36	96	6
TAP	36	96	7
TAP	36	192	1
TAP	36	288	0
TAP	36	288	1
TAP	37	0	0
TAP	37	0	7
TAP	37	96	0
TAP	37	96	7
BRK	37	192	1
BRK	37	192	6
STR	38	0	6
SI_	38	0	6	96	192	3
STR	38	0	7
SI_	38	0	7	96	192	2
STR	39	0	0
SI_	39	0	0	96	192	5
STR	39	0	1
SI_	39	0	1	96	192	4
TAP	40	0	5
TAP	40	96	4
TAP	40	96	5
TAP	40	192	2
TAP	40	288	2
TAP	40	288	3
TAP	41	0	3
TAP	41	0	4
TAP	41	96	3
TAP	41	96	4
BRK	41	192	2
BRK	41	192	5
HLD	42	0	0	96
HLD	42	0	1	96
HLD	42	192	6	96
HLD	42	192	7	96
TAP	43	0	0
TAP	43	0	7
TAP	43	96	0
TAP	43	96	7
TAP	43	192	1
TAP	43	192	6
STR	44	0	0
SCR	44	0	0	96	192	3
STR	44	0	7
SCL	44	0	7	96	192	4
TAP	45	0	3
TAP	45	0	4
TAP	45	96	3
TAP	45	96	4
BRK	45	192	2
BRK	45	192	5
TAP	46	0	5
TAP	46	96	4
TAP	46	96	5
TAP	46	192	2
TAP	46	288	2
TAP	46	288	3
TAP	47	0	3
TAP	47	0	4
TAP	47	96	3
TAP	47	96	4
TAP	47	192	2
TAP	47	192	5
STR	48	0	3
SCL	48	0	3	96	192	0
STR	48	0	4
SCR	48	0	4	96	192	7
TAP	49	0	0
TAP	49	0	7
TAP	49	96	0
TAP	49	96	7
TAP	49	192	1
TAP	49	192	6
TAP	50	0	2
TAP	50	96	2
TAP	50	192	2
TAP	50	192	3
TAP	51	0	5
TAP	51	96	5
TAP	51	192	4
TAP	51	192	5
TAP	52	0	6
TAP	52	96	7
TAP	52	192	1
TAP	52	288	0
TAP	53	0	0
TAP	53	0	7
TAP	53	96	0
TAP	53	96	7
TAP	53	192	1
TAP	53	192	6
TAP	54	0	6
TAP	54	96	6
TAP	54	192	6
TAP	54	192	7
TAP	55	0	1
TAP	55	96	1
TAP	55	192	0
TAP	55	192	1
TAP	56	0	2
TAP	56	96	3
TAP	56	192	5
TAP	56	288	4
HLD	57	0	3	96
HLD	57	0	4	96
BRK	57	192	2
BRK	57	192	5
HLD	58	0	5	384
HLD	59	0	4	384
HLD	60	0	3	384
HLD	61	0	2	192
TAP	61	192	3
HLD	62	0	1	192
TAP	62	192	0
HLD	63	0	6	192
TAP	63	192	7
TAP	64	0	7
TAP	64	96	7
TAP	64	192	0
TAP	64	288	0
TAP	65	0	0
TAP	65	0	7
TAP	65	96	0
TAP	65	96	7
BRK	65	192	1
BRK	65	192	6
TAP	66	0	6
TAP	66	0	7
TAP	66	96	6
TAP	66	96	7
TAP	66	192	0
TAP	66	192	1
TAP	66	288	0
TAP	66	288	1
TAP	67	0	0
TAP	67	0	7
TAP	67	96	0
TAP	67	96	7
BRK	67	192	1
BRK	67	192	6
TAP	68	0	2
TAP	68	96	2
TAP	68	96	3
TAP	68	192	5
TAP	68	288	4
TAP	68	288	5
TAP	69	0	3
TAP	69	0	4
TAP	69	96	3
TAP	69	96	4
TAP	69	192	2
TAP	69	192	5
STR	70	0	6
SI_	70	0	6	96	192	3
STR	70	0	7
SI_	70	0	7	96	192	2
STR	71	0	0
SI_	71	0	0	96	192	5
STR	71	0	1
SI_	71	0	1	96	192	4
TAP	72	0	5
TAP	72	96	4
TAP	72	96	5
TAP	72	192	5
TAP	72	288	4
TAP	72	288	5
TAP	73	0	2
TAP	73	96	2
TAP	73	96	3
TAP	73	192	2
TAP	73	288	2
TAP	73	288	3
TAP	74	0	3
TAP	74	0	4
TAP	74	96	3
TAP	74	96	4
TAP	74	192	2
TAP	74	192	5
TAP	74	288	2
TAP	74	288	5
TAP	75	0	1
TAP	75	0	6
TAP	75	96	1
TAP	75	96	6
BRK	75	192	0
BRK	75	192	7
HLD	76	0	0	96
HLD	76	0	1	96
HLD	76	192	6	96
HLD	76	192	7	96
TAP	77	0	0
TAP	77	0	7
TAP	77	96	0
TAP	77	96	7
TAP	77	192	1
TAP	77	192	6
STR	78	0	0
SCR	78	0	0	96	192	3
STR	78	0	7
SCL	78	0	7	96	192	4
TAP	79	0	3
TAP	79	0	4
TAP	79	96	3
TAP	79	96	4
BRK	79	192	2
BRK	79	192	5
TAP	80	0	5
TAP	80	96	4
TAP	80	96	5
TAP	80	192	2
TAP	80	288	2
TAP	80	288	3
TAP	81	0	3
TAP	81	0	4
TAP	81	96	3
TAP	81	96	4
TAP	81	192	2
TAP	81	192	5
STR	82	0	3
SCL	82	0	3	96	192	0
STR	82	0	4
SCR	82	0	4	96	192	7
TAP	83	0	1
TAP	83	96	0
TAP	83	96	1
TAP	83	192	6
TAP	83	288	6
TAP	83	288	7
STR	84	0	6
SCL	84	0	6	96	288	1
BRK	85	144	0
BRK	85	144	7

T_REC_TAP	286
T_REC_BRK	24
T_REC_XTP	0
T_REC_HLD	27
T_REC_XHO	0
T_REC_STR	21
T_REC_BST	0
T_REC_XST	0
T_REC_TTP	0
T_REC_THO	0
T_REC_SLD	21
T_REC_ALL	379
T_NUM_TAP	307
T_NUM_BRK	24
T_NUM_HLD	27
T_NUM_SLD	21
T_NUM_ALL	379
T_JUDGE_TAP	331
T_JUDGE_HLD	84
T_JUDGE_SLD	21
T_JUDGE_ALL	436
TTM_EACHPAIRS	128
TTM_SCR_TAP	153500
TTM_SCR_BRK	62400
TTM_SCR_HLD	27000
TTM_SCR_SLD	31500
TTM_SCR_ALL	274400
TTM_SCR_S	263850
TTM_SCR_SS	272000
TTM_RAT_ACV	10088

