VERSION	0.00.00	1.03.00
FES_MODE	0
BPM_DEF	182.000	182.000	182.000	182.000
MET_DEF	4	4
RESOLUTION	384
CLK_DEF	384
COMPATIBLE_CODE	MA2

BPM	0	0	182.000

STR	2	0	0
SI_	2	0	0	96	288	4
STR	4	0	7
SI_	4	0	7	96	288	3
BRK	6	0	0
TAP	6	192	0
TAP	7	0	1
TAP	7	96	1
TAP	7	192	1
TAP	8	0	2
TAP	8	192	2
TAP	9	0	3
TAP	9	96	3
TAP	9	192	3
TAP	9	192	4
TAP	10	0	4
TAP	10	192	4
TAP	11	0	5
TAP	11	96	5
TAP	11	192	4
TAP	11	192	5
TAP	12	0	6
TAP	12	192	6
BRK	13	0	0
BRK	13	0	7
HLD	14	0	6	192
TAP	15	0	5
TAP	15	192	5
HLD	16	0	4	192
TAP	17	0	3
TAP	17	192	3
HLD	18	0	2	192
TAP	19	0	1
TAP	19	192	1
HLD	20	0	0	384
HLD	20	0	7	384
TAP	22	0	0
TAP	22	192	0
TAP	23	0	1
TAP	23	96	0
TAP	23	192	1
TAP	24	0	2
TAP	24	192	2
TAP	25	0	3
TAP	25	96	4
TAP	25	192	3
TAP	26	0	4
TAP	26	192	4
TAP	27	0	5
TAP	27	96	4
TAP	27	192	5
TAP	28	0	6
TAP	28	96	6
TAP	28	192	6
TAP	29	0	7
TAP	29	96	7
TAP	29	192	7
HLD	30	0	0	384
HLD	30	0	7	384
TAP	32	0	0
TAP	32	0	7
TAP	32	192	0
TAP	32	192	7
TAP	33	0	0
TAP	33	0	7
TAP	33	96	0
TAP	33	96	7
TAP	33	192	0
TAP	33	192	7
BRK	34	0	0
TAP	34	96	0
TAP	34	192	0
TAP	35	0	1
TAP	35	96	1
TAP	35	192	1
TAP	36	0	2
TAP	36	96	2
TAP	36	192	2
TAP	37	0	3
TAP	37	96	4
TAP	37	192	3
TAP	37	192	4
TAP	38	0	4
TAP	38	96	4
TAP	38	192	4
TAP	39	0	5
TAP	39	96	5
TAP	39	192	5
TAP	40	0	6
TAP	40	96	6
TAP	40	192	6
TAP	41	0	7
TAP	41	96	0
TAP	41	192	0
TAP	41	192	7
STR	42	0	7
SI_	42	0	7	96	288	3
STR	44	0	0
SI_	44	0	0	96	288	4
TAP	46	0	7
TAP	46	192	7
TAP	47	0	6
TAP	47	96	6
TAP	47	192	6
TAP	48	0	5
TAP	48	192	5
TAP	49	0	4
TAP	49	96	4
TAP	49	192	4
STR	50	0	3
SI_	50	0	3	96	288	7
TAP	52	0	0
TAP	52	192	0
TAP	53	0	1
TAP	53	96	1
TAP	53	192	1
TAP	54	0	2
TAP	54	192	2
TAP	55	0	3
TAP	55	96	3
TAP	55	192	3
TAP	56	0	4
TAP	56	192	4
BRK	57	0	5
HLD	58	0	6	384
HLD	60	0	7	384
HLD	62	0	0	384
TAP	64	0	1
TAP	64	192	1
TAP	65	0	0
TAP	65	0	7
TAP	65	96	0
TAP	65	96	7
TAP	65	192	0
TAP	65	192	7
BRK	66	0	7
TAP	66	96	7
TAP	66	192	7
TAP	67	0	6
TAP	67	96	6
TAP	67	192	6
TAP	67	192	7
TAP	68	0	5
TAP	68	96	5
TAP	68	192	5
TAP	69	0	3
TAP	69	0	4
TAP	69	96	3
TAP	69	96	4
TAP	69	192	3
TAP	69	192	4
TAP	70	0	3
TAP	70	96	3
TAP	70	192	3
TAP	71	0	2
TAP	71	96	2
TAP	71	192	2
TAP	71	192	3
TAP	72	0	1
TAP	72	96	1
TAP	72	192	1
TAP	73	0	0
TAP	73	0	7
TAP	73	96	0
TAP	73	96	7
TAP	73	192	0
TAP	73	192	7
TAP	74	0	6
TAP	74	96	6
TAP	74	192	6
TAP	75	0	0
TAP	75	0	7
TAP	75	96	0
TAP	75	96	7
TAP	75	192	0
TAP	75	192	7
STR	76	0	0
SI_	76	0	0	96	288	4
STR	78	0	7
SI_	78	0	7	96	288	3
TAP	80	0	0
TAP	80	96	0
TAP	80	192	0
TAP	81	0	0
TAP	81	0	1
TAP	81	96	0
TAP	81	96	1
TAP	81	192	0
TAP	81	192	1
TAP	82	0	7
TAP	82	96	7
TAP	82	192	7
TAP	83	0	6
TAP	83	0	7
TAP	83	96	6
TAP	83	96	7
TAP	83	192	6
TAP	83	192	7
HLD	84	0	0	528
HLD	84	0	7	528

T_REC_TAP	168
T_REC_BRK	6
T_REC_XTP	0
T_REC_HLD	12
T_REC_XHO	0
T_REC_STR	7
T_REC_BST	0
T_REC_XST	0
T_REC_TTP	0
T_REC_THO	0
T_REC_SLD	7
T_REC_ALL	200
T_NUM_TAP	175
T_NUM_BRK	6
T_NUM_HLD	12
T_NUM_SLD	7
T_NUM_ALL	200
T_JUDGE_TAP	181
T_JUDGE_HLD	90
T_JUDGE_SLD	7
T_JUDGE_ALL	278
TTM_EACHPAIRS	33
TTM_SCR_TAP	87500
TTM_SCR_BRK	15600
TTM_SCR_HLD	12000
TTM_SCR_SLD	10500
TTM_SCR_ALL	125600
TTM_SCR_S	121250
TTM_SCR_SS	125000
TTM_RAT_ACV	10048

