VERSION	0.00.00	1.03.00
FES_MODE	0
BPM_DEF	114.000	114.000	114.000	114.000
MET_DEF	4	4
RESOLUTION	384
CLK_DEF	384
COMPATIBLE_CODE	MA2

BPM	0	0	114.000

BRK	2	288	0
STR	3	0	7
SI_	3	0	7	96	48	3
STR	3	96	1
SI_	3	96	1	96	48	6
STR	3	192	5
SI_	3	192	5	96	48	2
STR	3	288	3
SI_	3	288	3	96	48	7
STR	4	0	1
SI_	4	0	1	96	48	4
STR	4	96	5
SI_	4	96	5	96	48	0
STR	4	192	7
SI_	4	192	7	96	48	3
HLD	5	0	1	48
HLD	5	48	5	48
HLD	5	96	3	48
TAP	5	144	2
HLD	5	192	6	48
HLD	5	240	2	48
HLD	5	288	4	48
TAP	5	336	5
HLD	6	0	1	48
HLD	6	48	5	48
HLD	6	96	3	48
TAP	6	144	2
HLD	6	192	6	32
HLD	6	224	7	32
HLD	6	256	4	32
HLD	6	288	3	32
HLD	6	320	0	32
HLD	6	352	1	32
STR	7	0	5
SI_	7	0	5	96	48	1
STR	7	96	3
SI_	7	96	3	96	48	6
STR	7	192	7
SI_	7	192	7	96	48	2
STR	7	288	1
SI_	7	288	1	96	48	5
STR	8	0	3
SI_	8	0	3	96	48	0
STR	8	96	7
SI_	8	96	7	96	48	4
STR	8	192	5
SI_	8	192	5	96	48	1
HLD	9	0	4	48
HLD	9	48	6	48
HLD	9	96	0	48
TAP	9	144	2
HLD	9	192	3	48
HLD	9	240	1	48
HLD	9	288	7	48
TAP	9	336	5
HLD	10	0	4	48
HLD	10	48	6	48
HLD	10	96	0	48
TAP	10	144	2
TAP	10	192	1
TAP	10	192	6
TAP	10	288	5
TAP	10	320	4
TAP	10	336	3
TAP	10	368	2
STR	11	0	7
SCR	11	0	7	96	48	1
STR	11	96	6
SUR	11	96	6	96	48	2
STR	11	192	1
SUL	11	192	1	96	48	5
STR	11	288	2
SCR	11	288	2	96	48	5
STR	12	0	0
SCL	12	0	0	96	48	6
STR	12	96	1
SUL	12	96	1	96	48	5
STR	12	192	6
SUR	12	192	6	96	48	2
HLD	13	0	1	48
HLD	13	48	3	96
TAP	13	96	7
HLD	13	144	0	48
HLD	13	192	6	48
HLD	13	240	4	96
TAP	13	288	0
HLD	13	336	7	48
HLD	14	0	1	48
HLD	14	48	3	96
TAP	14	96	7
TAP	14	144	0
TAP	14	192	2
TAP	14	192	6
TAP	14	224	0
TAP	14	224	4
TAP	14	256	2
TAP	14	256	6
TAP	14	288	1
TAP	14	288	5
TAP	14	320	3
TAP	14	320	7
TAP	14	352	1
TAP	14	352	5
STR	15	0	7
SI_	15	0	7	96	48	3
STR	15	96	2
SCL	15	96	2	96	48	7
STR	15	192	6
SCL	15	192	6	96	48	3
STR	15	288	0
SSL	15	288	0	96	48	4
STR	16	0	5
SCR	16	0	5	96	48	0
STR	16	96	1
SCR	16	96	1	96	48	4
STR	16	192	7
SI_	16	192	7	96	48	3
HLD	17	0	6	24
HLD	17	48	1	24
TAP	17	96	5
TAP	17	120	4
TAP	17	144	3
TAP	17	168	2
TAP	17	192	7
TAP	17	240	0
HLD	17	288	1	96
TAP	17	288	6
TAP	17	336	2
HLD	18	0	6	96
TAP	18	48	5
HLD	18	96	4	48
TAP	18	144	3
TAP	18	192	2
TAP	18	192	5
STR	18	288	0
SCL	18	288	0	96	48	5
STR	19	0	1
SUL	19	0	1	96	48	4
STR	19	96	2
SCL	19	96	2	96	48	7
STR	19	192	3
SUL	19	192	3	96	48	6
STR	19	288	4
SCL	19	288	4	96	48	1
STR	20	0	5
SUL	20	0	5	96	48	0
STR	20	96	6
SSL	20	96	6	96	48	2
TAP	20	192	7
STR	20	288	7
SCR	20	288	7	96	48	2
STR	21	0	6
SUR	21	0	6	96	48	3
STR	21	96	5
SCR	21	96	5	96	48	0
STR	21	192	4
SUR	21	192	4	96	48	1
STR	21	288	3
SCR	21	288	3	96	48	6
STR	22	0	2
SUR	22	0	2	96	48	7
STR	22	96	1
SSR	22	96	1	96	48	5
TAP	22	192	0
STR	22	288	4
SLL	22	288	4	96	48	0
STR	23	0	5
SV_	23	0	5	96	48	7
STR	23	96	6
SLL	23	96	6	96	48	2
STR	23	192	7
SV_	23	192	7	96	48	1
STR	23	288	0
SLL	23	288	0	96	48	4
STR	24	0	1
SV_	24	0	1	96	48	3
STR	24	96	2
SLL	24	96	2	96	48	6
STR	24	192	3
SV_	24	192	3	96	48	5
STR	24	288	4
SUL	24	288	4	96	48	7
STR	25	0	3
SUR	25	0	3	96	48	0
STR	25	96	5
SI_	25	96	5	96	48	1
STR	25	192	2
SI_	25	192	2	96	48	6
STR	25	288	4
SCR	25	288	4	96	96	3
SUL	25	288	4	96	96	3
TAP	26	0	4
TAP	26	192	4
TAP	26	192	7
TAP	26	288	0
TAP	26	288	3
TAP	27	0	0
STR	27	0	6
SUL	27	0	6	96	48	2
STR	27	96	1
SUR	27	96	1	96	48	5
STR	27	192	7
SUL	27	192	7	96	48	3
TAP	27	288	2
STR	28	0	1
SUR	28	0	1	96	48	5
TAP	28	0	7
STR	28	96	6
SUL	28	96	6	96	48	2
STR	28	192	0
SUR	28	192	0	96	48	4
TAP	28	288	5
TAP	29	0	3
STR	29	0	5
SUR	29	0	5	96	48	1
STR	29	96	2
SUL	29	96	2	96	48	6
STR	29	192	4
SUR	29	192	4	96	48	0
STR	29	288	1
SUR	29	288	1	96	48	5
STR	30	0	6
SUL	30	0	6	96	48	2
TAP	30	96	1
STR	30	192	0
SSL	30	192	0	96	24	4
STR	30	192	7
SSR	30	192	7	96	24	3
TAP	30	240	0
TAP	30	240	7
TAP	30	264	0
TAP	30	264	7
STR	31	0	3
SI_	31	0	3	96	48	6
STR	31	96	0
SI_	31	96	0	96	48	5
STR	31	192	3
SUL	31	192	3	96	48	7
STR	31	288	0
SUL	31	288	0	96	48	4
STR	32	0	7
SI_	32	0	7	96	48	2
STR	32	96	4
SI_	32	96	4	96	48	1
STR	32	192	7
SUL	32	192	7	96	48	3
STR	32	288	4
SUL	32	288	4	96	48	0
STR	33	0	7
SUR	33	0	7	96	48	3
STR	33	96	0
SCL	33	96	0	96	48	5
SCR	33	96	0	96	48	2
STR	33	192	0
SUL	33	192	0	96	48	4
STR	33	288	7
SCL	33	288	7	96	48	5
SCR	33	288	7	96	48	2
STR	34	0	7
SUR	34	0	7	96	48	3
TAP	34	96	0
HLD	34	192	4	32
HLD	34	192	6	32
HLD	34	256	1	32
HLD	34	256	3	32
TAP	34	320	4
TAP	34	320	5
TAP	34	352	2
TAP	34	352	3
TAP	35	0	0
STR	35	0	1
SUL	35	0	1	96	48	4
STR	35	96	0
SI_	35	96	0	96	48	3
STR	35	192	7
SI_	35	192	7	96	48	4
STR	35	288	6
SUR	35	288	6	96	48	3
STR	36	0	7
SI_	36	0	7	96	48	4
STR	36	96	0
SI_	36	96	0	96	48	3
STR	36	192	1
SUL	36	192	1	96	48	4
TAP	36	288	6
TAP	37	0	2
STR	37	0	5
SUL	37	0	5	96	48	0
STR	37	96	4
SI_	37	96	4	96	48	7
STR	37	192	3
SI_	37	192	3	96	48	0
STR	37	288	2
SUR	37	288	2	96	48	7
STR	38	0	3
SI_	38	0	3	96	48	0
STR	38	96	4
SI_	38	96	4	96	48	7
STR	38	192	5
SUL	38	192	5	96	48	0
TAP	38	288	2
STR	39	0	0
SLL	39	0	0	96	48	4
TAP	39	0	6
STR	39	96	0
SI_	39	96	0	96	48	2
TAP	39	96	3
STR	39	192	0
SLL	39	192	0	96	48	4
TAP	39	192	6
TAP	39	288	0
TAP	39	288	3
TAP	40	0	0
STR	40	0	6
SLR	40	0	6	96	48	2
TAP	40	96	3
STR	40	96	6
SI_	40	96	6	96	48	4
TAP	40	192	0
STR	40	192	6
SLR	40	192	6	96	48	2
TAP	40	288	3
TAP	40	288	6
STR	41	0	1
SLL	41	0	1	96	48	5
TAP	41	0	7
STR	41	96	1
SI_	41	96	1	96	48	3
TAP	41	96	4
STR	41	192	1
SLL	41	192	1	96	48	5
TAP	41	192	7
TAP	41	288	1
TAP	41	288	4
TAP	42	0	1
STR	42	0	7
SLR	42	0	7	96	48	3
TAP	42	96	4
STR	42	96	7
SI_	42	96	7	96	48	5
TAP	42	192	1
STR	42	192	7
SLR	42	192	7	96	48	3
STR	42	288	4
SF_	42	288	4	96	48	0
TAP	42	288	7
STR	43	96	5
SI_	43	96	5	96	48	3
STR	43	192	2
SI_	43	192	2	96	48	6
STR	43	288	7
SI_	43	288	7	96	48	1
STR	44	0	2
SI_	44	0	2	96	48	4
STR	44	96	5
SI_	44	96	5	96	48	1
STR	44	192	0
SI_	44	192	0	96	48	6
STR	44	288	1
SI_	44	288	1	96	48	3
STR	45	0	4
SI_	45	0	4	96	48	0
STR	45	96	7
SI_	45	96	7	96	48	5
STR	45	192	6
SI_	45	192	6	96	48	4
STR	45	288	3
SI_	45	288	3	96	48	7
STR	46	0	0
SI_	46	0	0	96	48	2
STR	46	96	6
SLL	46	96	6	96	48	7
STR	46	192	2
SLL	46	192	2	96	48	3
STR	47	0	7
SCL	47	0	7	96	48	4
STR	47	96	2
SXL	47	96	2	96	48	4
STR	47	96	7
SCR	47	96	7	96	48	1
STR	47	192	7
SUL	47	192	7	96	48	3
TAP	47	288	7
STR	48	0	0
SCR	48	0	0	96	48	3
STR	48	96	0
SCL	48	96	0	96	48	6
STR	48	96	5
SXR	48	96	5	96	48	3
STR	48	192	0
SUR	48	192	0	96	48	4
TAP	48	288	0
STR	49	0	6
SUL	49	0	6	96	48	2
STR	49	96	5
SCR	49	96	5	96	48	0
STR	49	192	3
SUL	49	192	3	96	48	4
STR	49	288	2
SCL	49	288	2	96	48	7
STR	50	0	1
SUR	50	0	1	96	48	5
TAP	50	96	6
TAP	50	192	3
TAP	50	192	7
TAP	50	224	2
TAP	50	240	3
TAP	50	256	1
TAP	50	288	0
TAP	50	288	4
TAP	50	320	5
TAP	50	336	4
TAP	50	352	6
TAP	51	0	3
STR	51	0	7
SCL	51	0	7	96	48	5
STR	51	96	1
SUL	51	96	1	96	48	4
STR	51	192	6
SUR	51	192	6	96	48	3
STR	51	288	0
SCR	51	288	0	96	48	2
STR	52	0	4
SCR	52	0	4	96	48	6
STR	52	96	2
SUR	52	96	2	96	48	7
STR	52	192	5
SUL	52	192	5	96	48	0
STR	52	288	3
SCL	52	288	3	96	48	1
STR	53	0	0
SUR	53	0	0	96	48	5
STR	53	96	2
SCR	53	96	2	96	48	4
STR	53	192	1
SCL	53	192	1	96	48	7
STR	53	288	3
SUL	53	288	3	96	48	6
STR	54	0	7
SUL	54	0	7	96	48	2
STR	54	96	5
SCL	54	96	5	96	48	3
STR	54	192	6
SCR	54	192	6	96	48	0
STR	54	288	4
SUR	54	288	4	96	48	1
STR	55	0	6
SLL	55	0	6	96	48	0
STR	55	96	3
SLL	55	96	3	96	48	5
STR	55	192	0
SLL	55	192	0	96	48	2
STR	55	288	5
SLL	55	288	5	96	48	7
STR	56	0	2
SLL	56	0	2	96	48	4
STR	56	96	7
SLL	56	96	7	96	48	1
STR	56	192	4
SLL	56	192	4	96	48	6
STR	56	288	1
SLL	56	288	1	96	48	3
STR	57	0	6
SLR	57	0	6	96	48	4
STR	57	96	1
SLR	57	96	1	96	48	7
STR	57	192	4
SLR	57	192	4	96	48	2
STR	57	288	7
SLR	57	288	7	96	48	5
STR	58	0	2
SLR	58	0	2	96	48	0
STR	58	96	5
SLR	58	96	5	96	48	3
STR	58	192	0
SLR	58	192	0	96	48	6
STR	58	288	4
SI_	58	288	4	96	48	0
STR	59	0	7
SCL	59	0	7	96	1344	4
TAP	59	240	0
TAP	59	288	3
HLD	60	0	1	24
HLD	60	48	2	24
TAP	60	96	0
TAP	60	120	1
TAP	60	144	2
TAP	60	168	3
TAP	60	192	1
TAP	60	216	1
TAP	60	240	2
TAP	60	264	2
TAP	60	288	3
TAP	60	336	7
TAP	61	96	1
TAP	61	192	7
TAP	61	240	0
TAP	61	288	6
STR	62	0	1
SUR	62	0	1	96	96	2
STR	62	288	0
SCR	62	288	0	96	1248	3
TAP	63	240	7
TAP	63	288	4
HLD	64	0	6	24
HLD	64	48	5	24
TAP	64	96	7
TAP	64	120	6
TAP	64	144	5
TAP	64	168	4
TAP	64	192	6
TAP	64	216	6
TAP	64	240	5
TAP	64	264	5
TAP	64	288	4
TAP	64	336	0
TAP	65	96	6
TAP	65	192	0
TAP	65	240	7
TAP	65	288	1
TAP	66	0	6
TAP	66	72	5
TAP	66	144	4
TAP	66	192	3
TAP	66	204	4
TAP	66	216	2
TAP	66	228	5
TAP	66	240	3
TAP	66	252	4
TAP	66	264	2
TAP	66	276	5
BRK	66	288	3

T_REC_TAP	142
T_REC_BRK	2
T_REC_XTP	0
T_REC_HLD	45
T_REC_XHO	0
T_REC_STR	170
T_REC_BST	0
T_REC_XST	0
T_REC_TTP	0
T_REC_THO	0
T_REC_SLD	173
T_REC_ALL	532
T_NUM_TAP	312
T_NUM_BRK	2
T_NUM_HLD	45
T_NUM_SLD	173
T_NUM_ALL	532
T_JUDGE_TAP	314
T_JUDGE_HLD	94
T_JUDGE_SLD	173
T_JUDGE_ALL	581
TTM_EACHPAIRS	44
TTM_SCR_TAP	156000
TTM_SCR_BRK	5200
TTM_SCR_HLD	45000
TTM_SCR_SLD	259500
TTM_SCR_ALL	465700
TTM_SCR_S	451550
TTM_SCR_SS	465500
TTM_RAT_ACV	10004

