VERSION	0.00.00	1.03.00
FES_MODE	0
BPM_DEF	114.000	114.000	114.000	114.000
MET_DEF	4	4
RESOLUTION	384
CLK_DEF	384
COMPATIBLE_CODE	MA2

BPM	0	0	114.000

BRK	2	288	0
TAP	3	0	1
TAP	3	96	2
TAP	3	192	3
TAP	3	336	6
TAP	4	0	6
TAP	4	96	5
TAP	4	192	4
TAP	4	240	3
TAP	4	288	4
TAP	5	0	5
TAP	5	0	6
TAP	5	192	3
TAP	5	192	4
TAP	6	0	1
TAP	6	0	2
TAP	6	192	3
TAP	6	192	4
TAP	6	256	3
TAP	6	256	4
TAP	6	320	3
TAP	6	320	4
TAP	7	0	3
TAP	7	0	4
TAP	7	96	2
TAP	7	192	1
TAP	7	336	3
TAP	8	0	3
STR	8	96	4
SUL	8	96	4	96	144	3
TAP	8	144	5
TAP	8	192	6
TAP	9	0	1
TAP	9	0	2
TAP	9	192	3
TAP	9	192	4
TAP	10	0	5
TAP	10	0	6
HLD	10	192	3	96
HLD	10	192	4	96
TAP	11	0	1
TAP	11	96	2
TAP	11	192	3
TAP	11	288	3
TAP	11	288	4
TAP	11	336	5
TAP	12	0	5
STR	12	96	6
SCL	12	96	6	96	48	3
HLD	12	192	2	96
TAP	12	288	1
TAP	13	0	3
TAP	13	0	4
TAP	13	192	5
TAP	13	192	6
TAP	14	0	3
TAP	14	0	4
HLD	14	192	2	32
HLD	14	256	3	32
HLD	14	320	4	32
TAP	15	0	5
TAP	15	96	4
TAP	15	192	3
TAP	15	192	6
TAP	15	336	2
TAP	16	0	2
TAP	16	96	3
TAP	16	144	2
STR	16	192	1
SI_	16	192	1	96	48	3
STR	16	192	4
SI_	16	192	4	96	48	6
TAP	17	0	0
TAP	17	0	7
TAP	17	192	1
TAP	17	192	6
TAP	18	0	2
TAP	18	0	5
TAP	18	160	3
TAP	18	160	4
TAP	18	192	3
TAP	18	192	4
TAP	18	288	2
TAP	18	312	3
TAP	18	336	4
TAP	18	360	5
STR	19	0	3
SI_	19	0	3	96	48	7
STR	19	96	6
SI_	19	96	6	96	48	4
STR	19	192	0
SI_	19	192	0	96	48	2
STR	19	288	7
SI_	19	288	7	96	48	3
STR	20	0	2
SI_	20	0	2	96	48	0
STR	20	96	4
SI_	20	96	4	96	48	6
STR	20	192	7
SSR	20	192	7	96	96	3
TAP	21	0	5
TAP	21	96	6
TAP	21	192	7
TAP	21	288	0
TAP	22	0	1
STR	22	96	2
SCL	22	96	2	96	96	5
STR	22	192	5
SCR	22	192	5	96	96	2
TAP	23	0	3
TAP	23	96	4
STR	23	192	2
SCR	23	192	2	96	48	5
STR	23	192	5
SCR	23	192	5	96	48	0
TAP	24	0	4
TAP	24	96	3
STR	24	192	2
SCL	24	192	2	96	48	7
STR	24	192	5
SCL	24	192	5	96	48	2
TAP	25	0	6
TAP	25	96	5
TAP	25	96	7
TAP	25	192	1
TAP	25	288	0
STR	25	288	2
SF_	25	288	2	96	48	6
STR	26	96	5
SF_	26	96	5	96	48	1
TAP	26	288	3
TAP	26	288	7
STR	27	0	0
SCR	27	0	0	96	48	3
TAP	27	0	5
TAP	27	96	5
TAP	27	192	0
TAP	27	192	5
TAP	27	240	1
TAP	27	288	2
TAP	27	288	5
TAP	27	336	3
STR	28	0	4
SV_	28	0	4	96	48	7
TAP	28	0	5
TAP	28	96	5
TAP	28	192	5
STR	28	192	7
SUR	28	192	7	96	48	4
TAP	28	288	5
STR	29	0	3
SCL	29	0	3	96	48	0
TAP	29	0	6
TAP	29	96	6
TAP	29	192	3
TAP	29	192	6
TAP	29	240	2
TAP	29	288	1
TAP	29	288	6
TAP	29	336	0
TAP	30	0	6
STR	30	0	7
SCR	30	0	7	96	96	5
TAP	30	96	6
TAP	30	192	6
TAP	30	240	0
TAP	30	264	0
TAP	30	288	1
TAP	30	288	6
STR	31	0	2
SCL	31	0	2	96	48	7
TAP	31	0	5
TAP	31	96	5
TAP	31	192	5
TAP	31	192	6
TAP	31	240	7
TAP	31	288	0
TAP	31	288	5
TAP	31	336	1
STR	32	0	2
SCR	32	0	2	96	48	5
TAP	32	0	5
TAP	32	96	5
STR	32	192	2
SCR	32	192	2	96	48	5
TAP	32	192	5
TAP	32	288	5
STR	33	0	5
SCL	33	0	5	96	48	2
TAP	33	0	6
TAP	33	96	6
HLD	33	192	1	96
TAP	33	192	6
TAP	33	288	6
TAP	33	336	1
STR	34	0	0
SI_	34	0	0	96	48	4
TAP	34	0	6
TAP	34	96	6
TAP	34	192	2
TAP	34	192	6
TAP	34	256	1
TAP	34	256	5
TAP	34	320	3
TAP	34	320	4
TAP	34	352	3
TAP	34	352	4
TAP	35	0	2
STR	35	0	5
SCR	35	0	5	96	48	0
TAP	35	96	2
TAP	35	192	1
TAP	35	192	2
TAP	35	240	0
TAP	35	288	2
TAP	35	288	7
TAP	35	336	6
TAP	36	0	2
STR	36	0	5
SCL	36	0	5	96	48	2
TAP	36	96	2
TAP	36	192	3
TAP	36	208	4
TAP	36	224	5
TAP	36	240	4
TAP	36	256	3
TAP	36	272	2
TAP	36	288	3
TAP	37	0	1
STR	37	0	2
SCR	37	0	2	96	48	5
TAP	37	96	1
TAP	37	192	1
HLD	37	192	6	96
TAP	37	288	1
TAP	37	336	6
TAP	38	0	1
TAP	38	0	7
TAP	38	96	0
STR	38	96	1
SCR	38	96	1	96	144	7
HLD	38	192	4	192
TAP	39	0	0
TAP	39	96	1
TAP	39	96	7
TAP	39	192	2
TAP	39	240	3
TAP	39	288	3
TAP	39	336	4
TAP	40	0	4
TAP	40	96	3
TAP	40	96	5
TAP	40	192	6
TAP	40	240	7
TAP	40	288	0
TAP	40	288	6
TAP	41	0	1
HLD	41	0	3	96
HLD	41	96	4	96
TAP	41	192	6
STR	41	288	3
SXR	41	288	3	96	336	0
STR	41	288	4
SXL	41	288	4	96	336	7
BRK	43	0	1
BRK	43	0	6
TAP	43	96	3
TAP	43	96	4
TAP	43	192	1
TAP	43	192	6
TAP	43	240	4
TAP	43	288	3
TAP	43	288	5
TAP	43	336	4
STR	44	0	0
SCL	44	0	0	96	48	5
TAP	44	0	1
TAP	44	96	3
TAP	44	192	1
TAP	44	240	5
TAP	44	288	3
TAP	44	312	4
TAP	44	336	3
TAP	45	0	1
TAP	45	0	6
TAP	45	96	3
TAP	45	96	4
TAP	45	192	1
TAP	45	192	6
TAP	45	240	3
TAP	45	288	2
TAP	45	288	4
TAP	45	336	3
TAP	46	0	6
STR	46	0	7
SCR	46	0	7	96	48	2
TAP	46	96	4
TAP	46	192	6
TAP	46	240	3
TAP	46	264	3
TAP	46	288	4
TAP	46	336	1
TAP	46	336	6
TAP	47	0	0
STR	47	0	7
SCL	47	0	7	96	48	4
TAP	47	96	3
TAP	47	192	0
TAP	47	192	7
TAP	47	240	5
TAP	47	288	3
TAP	47	288	6
TAP	47	336	4
TAP	48	0	0
STR	48	0	5
SI_	48	0	5	96	48	1
TAP	48	96	3
TAP	48	192	0
TAP	48	192	7
TAP	48	240	5
TAP	48	288	3
TAP	48	288	6
TAP	49	0	0
STR	49	0	4
SCR	49	0	4	96	48	7
TAP	49	96	3
TAP	49	192	1
TAP	49	192	2
TAP	49	240	1
TAP	49	240	2
TAP	49	288	5
TAP	49	288	6
TAP	49	336	5
TAP	49	336	6
TAP	50	0	0
TAP	50	0	7
TAP	50	96	3
TAP	50	96	4
TAP	50	192	0
TAP	50	192	7
TAP	50	224	1
TAP	50	256	1
TAP	50	288	0
TAP	50	288	7
TAP	50	320	6
TAP	50	352	6
STR	51	0	0
SCR	51	0	0	96	48	3
TAP	51	0	7
TAP	51	96	4
TAP	51	192	0
TAP	51	192	7
TAP	51	240	2
TAP	51	288	1
TAP	51	288	4
TAP	51	336	3
STR	52	0	2
SI_	52	0	2	96	48	6
TAP	52	0	7
TAP	52	96	4
TAP	52	192	7
TAP	52	240	1
TAP	52	288	4
TAP	52	312	3
TAP	52	336	4
TAP	53	0	0
STR	53	0	7
SCL	53	0	7	96	48	4
TAP	53	96	3
TAP	53	192	0
TAP	53	192	7
TAP	53	240	5
TAP	53	288	3
TAP	53	288	6
TAP	53	336	4
TAP	54	0	0
TAP	54	0	5
STR	54	96	3
SCL	54	96	3	96	144	4
TAP	54	96	6
TAP	55	0	5
TAP	55	0	6
TAP	55	96	3
TAP	55	96	4
HLD	55	192	1	144
HLD	55	192	2	144
TAP	56	0	1
TAP	56	0	2
TAP	56	96	3
TAP	56	96	4
TAP	56	192	4
TAP	56	208	3
TAP	56	224	2
TAP	56	240	3
TAP	56	256	4
TAP	56	272	5
TAP	56	288	4
TAP	56	336	0
TAP	57	0	1
TAP	57	0	6
TAP	57	96	2
TAP	57	96	5
STR	57	192	3
SI_	57	192	3	96	48	0
STR	57	192	4
SI_	57	192	4	96	48	7
HLD	58	0	0	32
HLD	58	0	1	32
TAP	58	48	0
TAP	58	48	1
HLD	58	96	6	32
HLD	58	96	7	32
TAP	58	144	6
TAP	58	144	7
HLD	58	192	0	32
HLD	58	192	7	32
TAP	58	240	0
TAP	58	240	7
STR	58	288	1
SXR	58	288	1	96	288	4
TAP	58	288	6
BRK	59	0	5
HLD	60	0	5	96
TAP	60	96	4
TAP	60	192	3
TAP	60	240	2
TAP	60	288	1
TAP	60	288	3
HLD	61	0	2	96
TAP	61	96	3
TAP	61	192	4
TAP	61	240	5
TAP	61	288	4
TAP	61	288	6
HLD	62	0	5	96
HLD	62	96	4	96
HLD	62	192	3	96
STR	62	288	2
SCR	62	288	2	96	144	5
HLD	63	192	5	72
HLD	63	192	6	72
HLD	64	0	1	72
HLD	64	0	2	72
TAP	64	192	5
TAP	64	240	5
TAP	64	288	4
TAP	64	336	6
TAP	65	0	3
TAP	65	96	4
TAP	65	192	2
TAP	65	240	2
TAP	65	288	3
HLD	66	0	4	72
HLD	66	72	3	72
TAP	66	144	4
TAP	66	192	3
TAP	66	192	4
BRK	66	288	7

T_REC_TAP	327
T_REC_BRK	5
T_REC_XTP	0
T_REC_HLD	30
T_REC_XHO	0
T_REC_STR	48
T_REC_BST	0
T_REC_XST	0
T_REC_TTP	0
T_REC_THO	0
T_REC_SLD	48
T_REC_ALL	458
T_NUM_TAP	375
T_NUM_BRK	5
T_NUM_HLD	30
T_NUM_SLD	48
T_NUM_ALL	458
T_JUDGE_TAP	380
T_JUDGE_HLD	104
T_JUDGE_SLD	48
T_JUDGE_ALL	532
TTM_EACHPAIRS	117
TTM_SCR_TAP	187500
TTM_SCR_BRK	13000
TTM_SCR_HLD	30000
TTM_SCR_SLD	72000
TTM_SCR_ALL	302500
TTM_SCR_S	292950
TTM_SCR_SS	302000
TTM_RAT_ACV	10016

