VERSION	0.00.00	1.03.00
FES_MODE	0
BPM_DEF	114.000	114.000	114.000	114.000
MET_DEF	4	4
RESOLUTION	384
CLK_DEF	384
COMPATIBLE_CODE	MA2

BPM	0	0	114.000

HLD	1	0	2	216
HLD	2	192	2	96
BRK	2	288	3
TAP	3	0	6
TAP	3	0	7
TAP	3	192	0
TAP	3	192	1
TAP	3	288	1
TAP	4	0	0
TAP	4	0	1
HLD	4	192	6	96
TAP	4	192	7
TAP	4	288	7
TAP	5	0	5
TAP	5	192	3
TAP	5	288	4
STR	6	0	3
SSR	6	0	3	96	192	7
TAP	7	0	0
TAP	7	0	1
TAP	7	192	6
TAP	7	192	7
HLD	7	288	6	96
STR	8	0	7
SUR	8	0	7	96	144	3
TAP	9	0	4
TAP	9	0	5
TAP	9	96	3
TAP	9	192	2
HLD	10	0	2	96
TAP	10	96	3
HLD	10	192	0	96
HLD	10	192	1	96
TAP	11	0	0
TAP	11	0	6
TAP	11	96	7
TAP	11	192	0
TAP	11	192	1
HLD	11	288	0	192
TAP	11	288	1
TAP	12	96	1
HLD	12	192	6	96
TAP	12	288	7
TAP	13	0	5
HLD	13	192	2	96
TAP	13	192	3
TAP	13	288	3
STR	14	0	5
SSL	14	0	5	96	192	1
BRK	15	0	1
TAP	15	96	0
TAP	15	192	5
TAP	15	192	7
HLD	15	288	5	96
TAP	16	0	7
TAP	16	192	1
TAP	16	288	0
TAP	16	288	1
TAP	17	0	2
TAP	17	0	3
TAP	17	96	4
TAP	17	192	5
TAP	18	0	6
TAP	18	0	7
TAP	18	96	0
TAP	18	96	7
TAP	18	192	1
TAP	18	192	6
HLD	19	0	1	96
TAP	19	96	7
HLD	19	192	1	96
TAP	19	288	0
HLD	20	0	1	96
STR	20	96	7
SUL	20	96	7	96	96	3
HLD	21	0	2	96
TAP	21	96	3
HLD	21	192	3	96
TAP	21	288	4
HLD	22	0	3	96
TAP	22	96	5
HLD	22	192	3	96
HLD	22	192	5	96
TAP	23	0	6
TAP	23	96	0
HLD	23	192	6	96
TAP	23	288	7
HLD	24	0	6	96
TAP	24	96	0
HLD	24	192	6	96
TAP	24	288	7
TAP	25	0	4
TAP	25	0	5
TAP	25	96	4
TAP	25	192	3
TAP	25	192	4
TAP	25	288	3
HLD	26	0	2	96
HLD	26	0	3	96
TAP	26	192	3
TAP	26	192	4
TAP	26	288	2
TAP	26	288	5
TAP	27	0	0
TAP	27	0	1
TAP	27	96	7
TAP	27	192	4
TAP	27	192	6
HLD	28	0	2	96
TAP	28	192	1
TAP	28	192	3
TAP	28	288	0
TAP	29	0	0
TAP	29	96	7
TAP	29	192	4
TAP	29	192	6
TAP	30	0	6
TAP	30	0	7
TAP	30	96	0
HLD	30	192	1	96
HLD	30	192	3	96
TAP	31	0	6
TAP	31	0	7
TAP	31	96	0
TAP	31	192	1
TAP	31	192	3
HLD	32	0	5	96
TAP	32	192	4
TAP	32	192	6
TAP	32	288	7
TAP	33	0	7
TAP	33	96	0
TAP	33	192	1
TAP	33	192	3
TAP	33	288	0
TAP	34	0	7
TAP	34	96	6
TAP	34	192	4
TAP	34	192	5
TAP	35	0	1
TAP	35	0	7
TAP	35	96	6
TAP	35	192	3
TAP	35	192	5
TAP	36	0	2
TAP	36	96	2
HLD	36	192	1	96
HLD	36	192	3	96
TAP	37	0	0
TAP	37	96	7
TAP	37	192	4
TAP	37	192	6
TAP	37	288	7
TAP	38	0	0
TAP	38	0	1
TAP	38	96	2
HLD	38	192	1	96
HLD	38	192	3	96
TAP	39	0	0
HLD	39	0	7	96
TAP	39	96	1
TAP	39	192	2
TAP	39	192	4
TAP	40	0	5
TAP	40	96	4
TAP	40	192	3
TAP	40	192	6
TAP	40	288	7
TAP	41	0	0
TAP	41	96	1
TAP	41	192	2
TAP	41	192	3
STR	41	288	4
SF_	41	288	4	96	192	0
BRK	43	0	2
BRK	43	0	7
TAP	43	96	6
TAP	43	192	4
TAP	43	192	5
TAP	43	288	3
TAP	44	0	1
TAP	44	0	4
HLD	44	96	2	96
HLD	44	96	3	96
TAP	44	288	0
TAP	44	288	7
TAP	45	0	6
TAP	45	96	5
TAP	45	192	2
TAP	45	192	4
TAP	45	288	5
TAP	46	0	6
TAP	46	0	7
TAP	46	96	0
TAP	46	192	1
TAP	46	192	3
TAP	46	288	2
TAP	46	288	3
TAP	47	0	0
TAP	47	0	5
TAP	47	96	1
TAP	47	192	2
TAP	47	192	4
TAP	47	288	3
TAP	48	0	4
TAP	48	0	5
TAP	48	96	5
TAP	48	192	3
TAP	48	192	6
TAP	49	0	0
TAP	49	0	7
TAP	49	96	1
TAP	49	192	2
TAP	49	192	4
TAP	49	288	0
TAP	49	288	1
STR	50	0	6
SI_	50	0	6	96	144	3
STR	50	0	7
SI_	50	0	7	96	144	2
TAP	51	0	6
TAP	51	0	7
TAP	51	96	1
TAP	51	192	2
TAP	51	192	3
TAP	51	288	4
TAP	51	288	5
TAP	52	0	3
TAP	52	0	6
HLD	52	96	4	96
HLD	52	96	5	96
TAP	52	288	3
TAP	52	288	6
TAP	53	0	1
TAP	53	0	7
TAP	53	96	2
TAP	53	192	3
TAP	53	192	5
TAP	53	288	2
TAP	53	288	4
TAP	54	0	0
TAP	54	0	1
TAP	54	96	7
TAP	54	192	3
TAP	54	192	6
TAP	54	288	0
TAP	54	288	6
TAP	55	0	2
HLD	55	0	6	96
TAP	55	96	7
TAP	55	192	3
TAP	55	192	5
TAP	55	288	2
TAP	55	288	4
TAP	56	0	0
HLD	56	0	2	96
TAP	56	96	3
HLD	56	192	1	96
HLD	56	192	4	96
TAP	57	0	0
TAP	57	0	7
TAP	57	96	6
TAP	57	192	3
TAP	57	192	5
TAP	57	288	4
TAP	58	0	3
TAP	58	0	5
TAP	58	96	2
TAP	58	96	6
TAP	58	192	1
TAP	58	192	7
TAP	58	288	0
STR	59	0	6
SLR	59	0	6	96	192	4
STR	60	0	1
SLL	60	0	1	96	192	3
STR	61	0	4
SLL	61	0	4	96	192	0
TAP	62	0	7
TAP	62	96	7
HLD	62	192	6	96
TAP	62	288	0
STR	63	0	5
SLL	63	0	5	96	192	7
STR	64	0	2
SLR	64	0	2	96	192	0
STR	65	0	7
SLR	65	0	7	96	192	3
TAP	66	0	4
TAP	66	96	4
HLD	66	192	2	96
BRK	66	288	3

T_REC_TAP	218
T_REC_BRK	5
T_REC_XTP	0
T_REC_HLD	43
T_REC_XHO	0
T_REC_STR	13
T_REC_BST	0
T_REC_XST	0
T_REC_TTP	0
T_REC_THO	0
T_REC_SLD	13
T_REC_ALL	292
T_NUM_TAP	231
T_NUM_BRK	5
T_NUM_HLD	43
T_NUM_SLD	13
T_NUM_ALL	292
T_JUDGE_TAP	236
T_JUDGE_HLD	181
T_JUDGE_SLD	13
T_JUDGE_ALL	430
TTM_EACHPAIRS	84
TTM_SCR_TAP	115500
TTM_SCR_BRK	13000
TTM_SCR_HLD	43000
TTM_SCR_SLD	19500
TTM_SCR_ALL	191000
TTM_SCR_S	184800
TTM_SCR_SS	190500
TTM_RAT_ACV	10026

