VERSION	0.00.00	1.03.00
FES_MODE	0
BPM_DEF	114.000	114.000	114.000	114.000
MET_DEF	4	4
RESOLUTION	384
CLK_DEF	384
COMPATIBLE_CODE	MA2

BPM	0	0	114.000

BRK	2	288	0
TAP	3	0	0
TAP	3	96	0
TAP	3	192	0
TAP	4	0	1
TAP	4	96	1
TAP	4	192	1
HLD	5	0	2	192
HLD	6	0	3	192
TAP	7	0	4
TAP	7	96	4
TAP	7	192	4
TAP	8	0	5
TAP	8	96	5
TAP	8	192	5
HLD	9	0	6	192
HLD	10	0	7	192
TAP	11	0	7
TAP	11	96	7
TAP	11	192	7
TAP	12	0	6
TAP	12	96	6
TAP	12	192	6
HLD	13	0	5	192
HLD	14	0	4	192
TAP	15	0	3
TAP	15	96	3
TAP	15	192	3
TAP	16	0	2
TAP	16	96	2
TAP	16	192	2
HLD	17	0	1	192
HLD	18	0	0	192
TAP	19	0	7
TAP	19	96	7
TAP	19	192	0
TAP	19	192	7
TAP	20	0	0
TAP	20	96	0
TAP	20	192	0
TAP	20	192	7
TAP	21	0	6
TAP	21	96	6
TAP	21	192	6
TAP	21	192	7
TAP	22	0	1
TAP	22	96	1
TAP	22	192	0
TAP	22	192	1
TAP	23	0	6
TAP	23	96	7
TAP	23	192	6
TAP	24	0	1
TAP	24	96	0
TAP	24	192	1
TAP	25	0	6
TAP	25	96	6
TAP	25	192	7
TAP	25	288	7
TAP	26	0	0
TAP	26	96	0
TAP	26	192	1
BRK	26	288	1
TAP	27	0	2
TAP	27	96	2
TAP	27	192	2
TAP	27	192	3
TAP	28	0	5
TAP	28	96	5
TAP	28	192	4
TAP	28	192	5
TAP	29	0	2
TAP	29	96	2
TAP	29	192	3
TAP	29	288	3
TAP	30	0	4
TAP	30	96	4
TAP	30	192	4
TAP	30	192	5
TAP	31	0	6
TAP	31	96	6
TAP	31	192	6
TAP	31	192	7
TAP	32	0	1
TAP	32	96	1
TAP	32	192	0
TAP	32	192	1
TAP	33	0	6
TAP	33	96	6
TAP	33	192	7
TAP	33	288	7
TAP	34	0	0
TAP	34	96	0
TAP	34	192	0
TAP	34	192	1
TAP	35	0	1
TAP	35	96	1
TAP	35	192	0
TAP	35	192	1
TAP	36	0	6
TAP	36	96	6
TAP	36	192	6
TAP	36	192	7
TAP	37	0	1
TAP	37	96	1
TAP	37	192	0
TAP	37	288	0
TAP	38	0	7
TAP	38	96	7
TAP	38	192	6
TAP	38	192	7
TAP	39	0	5
TAP	39	96	5
TAP	39	192	4
TAP	39	192	5
TAP	40	0	2
TAP	40	96	2
TAP	40	192	2
TAP	40	192	3
TAP	41	0	5
TAP	41	96	5
TAP	41	192	4
TAP	41	288	4
TAP	42	0	3
TAP	42	96	3
TAP	42	192	2
TAP	42	192	3
BRK	43	0	3
TAP	43	96	3
TAP	43	192	2
TAP	43	192	4
TAP	44	0	4
TAP	44	96	4
TAP	44	192	3
TAP	44	192	5
TAP	45	0	2
TAP	45	0	3
TAP	45	96	2
TAP	45	96	3
TAP	45	192	0
TAP	45	192	1
TAP	45	288	0
TAP	45	288	1
TAP	46	0	6
TAP	46	0	7
TAP	46	96	6
TAP	46	96	7
TAP	46	192	4
TAP	46	192	5
TAP	47	0	4
TAP	47	96	4
TAP	47	192	3
TAP	47	192	5
TAP	48	0	3
TAP	48	96	3
TAP	48	192	2
TAP	48	192	4
TAP	49	0	4
TAP	49	0	5
TAP	49	96	4
TAP	49	96	5
TAP	49	192	6
TAP	49	192	7
TAP	49	288	6
TAP	49	288	7
TAP	50	0	0
TAP	50	0	1
TAP	50	96	0
TAP	50	96	1
TAP	50	192	2
TAP	50	192	3
TAP	51	0	2
TAP	51	0	3
TAP	51	96	2
TAP	51	96	3
TAP	51	192	1
TAP	51	192	4
TAP	52	0	4
TAP	52	0	5
TAP	52	96	4
TAP	52	96	5
TAP	52	192	3
TAP	52	192	6
TAP	53	0	2
TAP	53	0	3
TAP	53	96	1
TAP	53	96	2
TAP	53	192	0
TAP	53	192	1
TAP	53	288	0
TAP	53	288	7
TAP	54	0	6
TAP	54	0	7
TAP	54	96	5
TAP	54	96	6
TAP	54	192	4
TAP	54	192	5
TAP	55	0	4
TAP	55	0	5
TAP	55	96	4
TAP	55	96	5
TAP	55	192	3
TAP	55	192	6
TAP	56	0	2
TAP	56	0	3
TAP	56	96	2
TAP	56	96	3
TAP	56	192	1
TAP	56	192	4
TAP	57	0	4
TAP	57	0	5
TAP	57	96	5
TAP	57	96	6
TAP	57	192	6
TAP	57	192	7
TAP	57	288	0
TAP	57	288	7
TAP	58	0	0
TAP	58	0	1
TAP	58	96	1
TAP	58	96	2
TAP	58	192	2
TAP	58	192	3
STR	59	0	3
SI_	59	0	3	96	288	0
STR	61	0	4
SI_	61	0	4	96	288	7
STR	63	0	3
SI_	63	0	3	96	288	0
STR	65	0	4
SI_	65	0	4	96	288	7
BRK	66	288	0

T_REC_TAP	212
T_REC_BRK	4
T_REC_XTP	0
T_REC_HLD	8
T_REC_XHO	0
T_REC_STR	4
T_REC_BST	0
T_REC_XST	0
T_REC_TTP	0
T_REC_THO	0
T_REC_SLD	4
T_REC_ALL	232
T_NUM_TAP	216
T_NUM_BRK	4
T_NUM_HLD	8
T_NUM_SLD	4
T_NUM_ALL	232
T_JUDGE_TAP	220
T_JUDGE_HLD	64
T_JUDGE_SLD	4
T_JUDGE_ALL	288
TTM_EACHPAIRS	60
TTM_SCR_TAP	108000
TTM_SCR_BRK	10400
TTM_SCR_HLD	8000
TTM_SCR_SLD	6000
TTM_SCR_ALL	132400
TTM_SCR_S	128050
TTM_SCR_SS	132000
TTM_RAT_ACV	10030

