VERSION	0.00.00	1.03.00
FES_MODE	0
BPM_DEF	180.000	180.000	180.000	180.000
MET_DEF	4	4
RESOLUTION	384
CLK_DEF	384
COMPATIBLE_CODE	MA2

BPM	0	0	180.000

TAP	1	0	0
TAP	1	0	7
TAP	1	48	0
TAP	1	48	7
TAP	1	144	4
TAP	1	144	5
STR	1	240	1
SCR	1	240	1	96	144	7
STR	1	240	2
SCR	1	240	2	96	144	7
TAP	2	192	7
STR	2	240	1
SLL	2	240	1	96	288	3
STR	2	240	5
SLR	2	240	5	96	288	3
STR	4	0	5
SCR	4	0	5	96	192	2
TAP	5	0	1
HLD	5	0	5	96
TAP	5	96	4
HLD	5	192	2	96
TAP	5	192	6
TAP	5	288	3
TAP	6	0	4
TAP	6	0	5
STR	6	96	1
SXL	6	96	1	96	96	3
STR	6	96	6
SXR	6	96	6	96	96	4
HLD	7	0	3	96
TAP	7	0	7
TAP	7	96	4
HLD	7	192	2	96
TAP	7	192	6
TAP	7	288	3
HLD	8	0	1	96
TAP	8	0	5
TAP	8	96	2
TAP	8	192	2
TAP	8	192	3
TAP	8	240	1
TAP	8	288	2
TAP	8	288	3
TAP	9	0	0
HLD	9	0	4	96
TAP	9	96	3
TAP	9	192	1
HLD	9	192	5	96
TAP	9	288	4
TAP	10	0	2
HLD	10	0	6	96
STR	10	96	5
SCR	10	96	5	96	96	2
HLD	11	0	1	288
TAP	11	0	7
TAP	11	96	3
TAP	11	192	7
TAP	11	288	3
HLD	12	0	2	288
STR	12	0	7
SI_	12	0	7	96	48	3
STR	12	192	7
SI_	12	192	7	96	48	3
TAP	13	0	4
TAP	13	72	6
TAP	13	72	7
TAP	13	144	1
TAP	13	144	5
TAP	13	192	4
TAP	13	264	0
TAP	13	264	1
TAP	13	336	2
TAP	13	336	6
TAP	14	0	3
TAP	14	72	0
TAP	14	72	7
BRK	14	144	1
BRK	14	144	6
HLD	14	288	0	48
HLD	14	288	7	48
TAP	15	0	1
TAP	15	48	0
TAP	15	96	2
TAP	15	144	4
TAP	15	192	1
TAP	15	240	7
STR	15	288	1
SI_	15	288	1	96	48	5
STR	15	288	7
SI_	15	288	7	96	48	3
STR	16	96	0
SI_	16	96	0	96	48	4
STR	16	96	6
SI_	16	96	6	96	48	2
TAP	16	288	0
TAP	16	288	7
HLD	17	0	1	48
HLD	17	0	3	48
HLD	17	96	4	48
HLD	17	96	6	48
HLD	17	192	1	48
HLD	17	192	6	48
BRK	17	288	1
TAP	17	336	1
BRK	18	0	6
TAP	18	48	6
TAP	18	96	4
TAP	18	96	6
TAP	18	144	3
TAP	18	144	6
TAP	18	192	2
TAP	18	192	6
TAP	18	240	1
TAP	18	240	6
TAP	18	288	0
TAP	18	288	6
TAP	19	0	6
TAP	19	48	7
TAP	19	96	5
TAP	19	144	3
TAP	19	192	6
TAP	19	240	0
STR	19	288	2
SUL	19	288	2	96	48	6
STR	19	288	6
SUL	19	288	6	96	48	2
STR	20	96	7
SCL	20	96	7	96	48	4
SCR	20	96	7	96	48	2
TAP	20	288	1
TAP	20	288	5
TAP	21	0	3
HLD	21	0	4	192
TAP	21	96	6
TAP	21	192	1
TAP	21	240	1
TAP	21	288	0
TAP	21	288	7
TAP	22	0	0
STR	22	0	2
SLL	22	0	2	96	96	4
STR	22	96	4
SXL	22	96	4	96	120	4
SXR	22	96	4	96	120	4
TAP	23	0	1
HLD	23	0	4	96
TAP	23	96	3
TAP	23	192	2
HLD	23	192	5	96
TAP	23	288	4
HLD	24	0	5	96
STR	24	0	7
SCR	24	0	7	96	48	1
STR	24	192	0
SCR	24	192	0	96	48	2
HLD	24	192	4	96
TAP	25	0	1
TAP	25	0	3
STR	25	96	0
SLR	25	96	0	96	96	4
STR	25	96	4
SLR	25	96	4	96	96	0
STR	26	0	3
SLL	26	0	3	96	96	7
STR	26	0	7
SLL	26	0	7	96	96	3
TAP	26	288	2
TAP	26	288	3
HLD	27	0	3	96
TAP	27	0	6
TAP	27	96	4
HLD	27	192	2	96
TAP	27	192	5
TAP	27	288	3
STR	28	0	0
SCL	28	0	0	96	48	6
HLD	28	0	2	96
HLD	28	192	3	96
STR	28	192	7
SCL	28	192	7	96	48	5
TAP	29	0	1
TAP	29	48	0
TAP	29	48	2
TAP	29	144	6
TAP	29	192	5
TAP	29	192	7
TAP	29	288	0
TAP	29	288	7
TAP	29	336	1
STR	29	336	6
SCL	29	336	6	96	144	1
TAP	30	240	0
TAP	30	288	7
STR	31	0	3
SCR	31	0	3	96	48	5
HLD	31	0	6	96
HLD	31	192	1	96
STR	31	192	4
SCL	31	192	4	96	48	2
STR	32	0	1
SCR	32	0	1	96	48	4
BRK	32	0	7
TAP	32	96	6
STR	32	192	2
SCR	32	192	2	96	48	5
BRK	32	192	7
TAP	32	288	6
HLD	33	0	1	96
STR	33	0	4
SCL	33	0	4	96	48	2
STR	33	192	3
SCR	33	192	3	96	48	5
HLD	33	192	6	96
BRK	34	0	0
STR	34	0	6
SCL	34	0	6	96	48	3
TAP	34	96	1
BRK	34	192	0
STR	34	192	5
SCL	34	192	5	96	48	2
TAP	34	288	1
TAP	35	0	1
TAP	35	48	0
TAP	35	96	1
TAP	35	144	2
TAP	35	144	7
TAP	35	240	6
TAP	35	288	7
TAP	35	336	0
TAP	35	336	5
TAP	36	48	2
TAP	36	96	0
TAP	36	144	3
TAP	36	144	7
TAP	36	240	7
TAP	36	288	1
TAP	36	336	5
TAP	37	0	0
STR	37	0	4
SI_	37	0	4	96	192	0
TAP	38	0	0
TAP	38	0	7
TAP	38	64	7
TAP	38	96	0
TAP	38	128	7
TAP	38	192	1
TAP	38	192	6
TAP	39	0	1
TAP	39	0	4
TAP	39	48	5
TAP	39	96	3
STR	39	96	6
SUL	39	96	6	96	48	1
STR	39	192	1
SUR	39	192	1	96	48	6
TAP	39	288	7
STR	40	0	0
SXL	40	0	0	96	48	2
SXR	40	0	0	96	48	6
BRK	40	192	1
BRK	40	192	7
TAP	40	288	4
TAP	40	288	6
TAP	40	336	7
TAP	41	0	0
TAP	41	0	1
TAP	41	48	2
TAP	41	96	3
TAP	41	96	5
TAP	41	192	3
TAP	41	240	4
TAP	41	288	6
TAP	41	336	4
HLD	42	0	4	192
STR	42	0	7
SSR	42	0	7	96	96	3
TAP	42	288	1
TAP	42	288	5
STR	43	0	5
SXL	43	0	5	96	48	7
TAP	43	48	4
TAP	43	96	3
TAP	43	144	2
STR	43	192	2
SXR	43	192	2	96	48	0
TAP	43	240	3
TAP	43	288	4
STR	44	0	6
SXR	44	0	6	96	48	4
STR	44	0	7
SXL	44	0	7	96	48	1
BRK	44	192	0
BRK	44	192	5
TAP	44	288	1
TAP	44	288	3
TAP	44	336	0
TAP	45	0	6
TAP	45	0	7
TAP	45	48	5
TAP	45	96	2
TAP	45	96	4
TAP	45	192	4
TAP	45	240	3
TAP	45	288	1
TAP	45	336	3
STR	46	0	0
SI_	46	0	0	96	96	4
HLD	46	0	3	192
TAP	46	288	1
TAP	46	288	5
TAP	47	0	0
STR	47	0	4
SCR	47	0	4	96	48	7
TAP	47	96	2
TAP	47	192	0
STR	47	192	4
SCL	47	192	4	96	48	1
TAP	47	288	6
TAP	48	0	0
TAP	48	0	4
TAP	48	96	1
TAP	48	96	3
TAP	48	144	0
TAP	48	144	4
TAP	48	240	4
TAP	48	288	5
TAP	48	336	6
TAP	49	0	0
TAP	49	0	7
TAP	49	48	0
TAP	49	48	7
TAP	49	144	4
TAP	49	144	5
STR	49	240	1
SCR	49	240	1	96	144	7
STR	49	240	2
SCR	49	240	2	96	144	7
TAP	50	192	7
STR	50	240	1
SLL	50	240	1	96	288	3
STR	50	240	5
SLR	50	240	5	96	288	3
STR	52	0	5
SCR	52	0	5	96	192	2
TAP	53	0	2
TAP	53	48	3
TAP	53	96	1
TAP	53	144	1
TAP	53	192	5
TAP	53	240	4
TAP	53	288	6
TAP	53	336	6
TAP	54	0	1
TAP	54	48	6
TAP	54	96	1
TAP	54	144	0
TAP	54	144	7
TAP	54	240	0
TAP	54	240	7
TAP	55	0	4
HLD	55	0	6	288
TAP	55	96	1
TAP	55	192	5
TAP	55	288	7
HLD	56	0	1	288
TAP	56	0	3
TAP	56	96	6
TAP	56	192	2
TAP	56	288	0
TAP	57	0	4
TAP	57	72	6
TAP	57	72	7
TAP	57	144	1
TAP	57	144	4
TAP	57	192	3
TAP	57	264	0
TAP	57	264	1
TAP	57	336	3
TAP	57	336	6
TAP	58	0	4
TAP	58	72	0
TAP	58	72	7
BRK	58	144	1
BRK	58	144	6
TAP	58	240	3
TAP	58	288	4
HLD	59	0	1	96
STR	59	0	4
SCL	59	0	4	96	48	2
STR	59	192	3
SCR	59	192	3	96	48	5
HLD	59	192	6	96
BRK	60	0	0
STR	60	0	6
SCL	60	0	6	96	48	3
TAP	60	96	1
BRK	60	192	0
STR	60	192	5
SCL	60	192	5	96	48	2
TAP	60	288	1
STR	61	0	3
SCR	61	0	3	96	48	5
HLD	61	0	6	96
HLD	61	192	1	96
STR	61	192	4
SCL	61	192	4	96	48	2
STR	62	0	1
SCR	62	0	1	96	48	4
BRK	62	0	7
TAP	62	96	6
STR	62	192	2
SCR	62	192	2	96	48	5
BRK	62	192	7
TAP	62	288	6
TAP	63	0	6
TAP	63	48	7
TAP	63	96	6
TAP	63	144	0
TAP	63	144	5
TAP	63	240	1
TAP	63	288	0
TAP	63	336	2
TAP	63	336	7
TAP	64	48	5
TAP	64	96	7
TAP	64	144	0
TAP	64	144	4
TAP	64	240	0
TAP	64	288	6
TAP	64	336	2
STR	65	0	3
SI_	65	0	3	96	192	7
TAP	65	0	7
TAP	66	48	0
TAP	66	48	7
TAP	66	216	1
TAP	66	216	6
TAP	66	288	0
TAP	66	320	7
TAP	67	0	0
TAP	67	32	7
TAP	67	96	0
TAP	67	96	7
TAP	67	160	1
TAP	67	160	6
TAP	67	192	1
TAP	67	192	6
TAP	68	0	3
TAP	68	0	6
TAP	68	48	2
STR	68	96	1
SUR	68	96	1	96	48	6
TAP	68	96	4
STR	68	192	6
SUL	68	192	6	96	48	1
TAP	68	288	0
STR	69	0	7
SXL	69	0	7	96	48	1
SXR	69	0	7	96	48	5
BRK	69	192	0
BRK	69	192	6
TAP	69	288	1
TAP	69	288	3
TAP	69	336	0
TAP	70	0	6
TAP	70	0	7
TAP	70	48	5
TAP	70	96	2
TAP	70	96	4
TAP	70	192	4
TAP	70	240	3
TAP	70	288	1
TAP	70	336	3
STR	71	0	0
SSL	71	0	0	96	96	4
HLD	71	0	3	192
TAP	71	288	2
TAP	71	288	6
STR	72	0	2
SXR	72	0	2	96	48	0
TAP	72	48	3
TAP	72	96	4
TAP	72	144	5
STR	72	192	5
SXL	72	192	5	96	48	7
TAP	72	240	4
TAP	72	288	3
STR	73	0	0
SXR	73	0	0	96	48	6
STR	73	0	1
SXL	73	0	1	96	48	3
BRK	73	192	2
BRK	73	192	7
TAP	73	288	4
TAP	73	288	6
TAP	73	336	7
TAP	74	0	0
TAP	74	0	1
TAP	74	48	2
TAP	74	96	3
TAP	74	96	6
TAP	74	192	3
TAP	74	240	4
TAP	74	288	6
TAP	74	336	4
HLD	75	0	4	192
STR	75	0	7
SI_	75	0	7	96	96	3
TAP	75	288	2
TAP	75	288	6
TAP	76	0	0
TAP	76	0	4
TAP	76	48	5
TAP	76	96	2
STR	76	96	6
SCL	76	96	6	96	64	3
STR	76	192	2
SCR	76	192	2	96	64	5
TAP	76	288	1
STR	77	0	0
SCL	77	0	0	96	64	5
SCR	77	0	0	96	64	3
BRK	77	192	1
BRK	77	192	7
TAP	77	288	4
TAP	77	288	6
TAP	77	336	7
STR	78	0	0
SCL	78	0	0	96	48	5
TAP	78	0	1
TAP	78	48	2
TAP	78	96	3
TAP	78	192	2
TAP	78	240	4
TAP	78	288	6
TAP	78	336	4
STR	79	0	4
SSR	79	0	4	96	96	0
STR	79	0	7
SSL	79	0	7	96	96	3
TAP	79	288	1
TAP	79	288	6
STR	80	0	6
SXR	80	0	6	96	48	4
TAP	80	48	7
TAP	80	96	0
TAP	80	144	1
STR	80	192	1
SXL	80	192	1	96	48	3
TAP	80	240	0
TAP	80	288	7
BRK	81	0	6
BRK	81	0	7
BRK	81	96	2
BRK	81	96	3
BRK	81	192	0
BRK	81	192	5
TAP	81	288	1
TAP	81	288	3
TAP	81	336	0
TAP	82	0	6
STR	82	0	7
SCR	82	0	7	96	48	2
TAP	82	48	5
TAP	82	96	4
TAP	82	192	5
TAP	82	240	3
TAP	82	288	1
TAP	82	336	3
STR	83	0	0
SI_	83	0	0	96	96	4
HLD	83	0	3	192
TAP	83	288	1
TAP	83	288	5
STR	84	0	3
SI_	84	0	3	96	48	0
TAP	84	0	7
TAP	84	96	5
STR	84	192	3
SI_	84	192	3	96	48	6
TAP	84	192	7
TAP	84	288	1
TAP	85	0	3
TAP	85	0	7
TAP	85	96	4
TAP	85	96	6
TAP	85	144	3
TAP	85	144	7
TAP	85	240	3
TAP	85	288	2
TAP	85	336	1
TAP	86	0	0
TAP	86	0	7
TAP	86	48	0
TAP	86	48	7
TAP	86	144	4
TAP	86	144	5
STR	86	240	1
SCR	86	240	1	96	144	7
STR	86	240	2
SCR	86	240	2	96	144	7
TAP	87	192	7
STR	87	240	1
SLL	87	240	1	96	240	3
STR	87	240	5
SLR	87	240	5	96	240	3
HLD	88	288	0	360
STR	88	288	4
SCR	88	288	4	96	264	3
STR	90	0	2
SCL	90	0	2	96	144	5
SUL	90	0	2	96	144	5
HLD	91	0	1	96
TAP	91	0	7
TAP	91	96	3
TAP	91	192	0
HLD	91	192	6	96
TAP	91	288	4
TAP	92	0	2
TAP	92	0	3
STR	92	96	0
SXL	92	96	0	96	96	2
STR	92	96	7
SXR	92	96	7	96	96	5
TAP	93	0	2
TAP	93	0	3
TAP	93	48	1
STR	93	144	5
SI_	93	144	5	96	48	0
TAP	93	192	4
TAP	93	240	3
TAP	93	336	1
TAP	93	336	7
TAP	94	48	4
TAP	94	48	5
TAP	94	96	3
TAP	94	144	6
TAP	94	192	0
TAP	94	240	7
TAP	94	288	1
TAP	94	288	6
TAP	95	0	4
TAP	95	0	5
TAP	95	48	6
STR	95	144	2
SI_	95	144	2	96	48	7
TAP	95	192	3
TAP	95	240	4
TAP	95	336	0
TAP	95	336	6
TAP	96	48	2
TAP	96	48	3
STR	96	96	4
SLL	96	96	4	96	96	7
TAP	96	144	1
TAP	97	0	6
TAP	97	0	7
TAP	97	48	5
STR	97	144	1
SI_	97	144	1	96	48	4
TAP	97	192	0
TAP	97	240	7
TAP	97	336	3
TAP	97	336	5
TAP	98	48	0
TAP	98	48	1
TAP	98	96	7
TAP	98	144	2
TAP	98	192	4
TAP	98	240	3
TAP	98	288	2
TAP	98	288	5
TAP	99	0	3
TAP	99	72	6
TAP	99	72	7
TAP	99	144	0
TAP	99	144	5
TAP	99	192	4
TAP	99	264	0
TAP	99	264	1
TAP	99	336	2
TAP	99	336	7
TAP	100	0	3
TAP	100	72	6
TAP	100	72	7
BST	100	144	1
SLL	100	144	1	96	240	3
BST	100	144	5
SLR	100	144	5	96	240	3

T_REC_TAP	414
T_REC_BRK	30
T_REC_XTP	0
T_REC_HLD	45
T_REC_XHO	0
T_REC_STR	95
T_REC_BST	2
T_REC_XST	0
T_REC_TTP	0
T_REC_THO	0
T_REC_SLD	103
T_REC_ALL	689
T_NUM_TAP	509
T_NUM_BRK	32
T_NUM_HLD	45
T_NUM_SLD	103
T_NUM_ALL	689
T_JUDGE_TAP	541
T_JUDGE_HLD	116
T_JUDGE_SLD	103
T_JUDGE_ALL	760
TTM_EACHPAIRS	185
TTM_SCR_TAP	254500
TTM_SCR_BRK	83200
TTM_SCR_HLD	45000
TTM_SCR_SLD	154500
TTM_SCR_ALL	537200
TTM_SCR_S	518000
TTM_SCR_SS	534000
TTM_RAT_ACV	10059

