VERSION	0.00.00	1.03.00
FES_MODE	0
BPM_DEF	180.000	180.000	180.000	180.000
MET_DEF	4	4
RESOLUTION	384
CLK_DEF	384
COMPATIBLE_CODE	MA2

BPM	0	0	180.000

TAP	1	0	3
TAP	1	0	4
TAP	1	48	3
TAP	1	48	4
TAP	1	144	2
TAP	1	144	5
TAP	1	240	1
TAP	1	240	6
HLD	1	336	0	96
HLD	1	336	7	96
TAP	2	96	0
TAP	2	96	7
TAP	2	144	0
TAP	2	144	7
STR	2	192	0
SI_	2	192	0	96	48	3
STR	2	192	7
SI_	2	192	7	96	48	4
TAP	3	0	3
TAP	3	96	2
TAP	3	96	4
TAP	3	192	4
TAP	3	288	3
TAP	3	288	5
TAP	4	0	2
TAP	4	96	1
TAP	4	96	3
TAP	4	192	5
TAP	4	288	4
TAP	4	288	6
TAP	5	0	2
TAP	5	0	3
TAP	5	96	4
TAP	5	96	5
TAP	5	192	2
TAP	5	192	3
TAP	5	288	4
STR	5	288	5
SCR	5	288	5	96	192	1
TAP	6	288	0
TAP	6	288	7
TAP	7	0	2
TAP	7	48	3
TAP	7	96	2
TAP	7	192	5
TAP	7	240	4
TAP	7	288	5
TAP	8	0	2
TAP	8	96	1
STR	8	96	3
SCR	8	96	3	96	96	6
TAP	9	0	5
TAP	9	48	4
TAP	9	96	5
TAP	9	192	2
TAP	9	240	3
TAP	9	288	2
TAP	10	0	5
STR	10	96	4
SCL	10	96	4	96	96	1
TAP	10	96	6
TAP	11	0	1
TAP	11	48	0
TAP	11	96	1
TAP	11	192	6
TAP	11	240	7
TAP	11	288	6
TAP	12	0	1
STR	12	96	0
SCL	12	96	0	96	96	5
TAP	12	96	2
HLD	13	0	6	72
HLD	13	0	7	72
TAP	13	144	6
TAP	13	144	7
HLD	13	192	0	72
HLD	13	192	1	72
TAP	13	336	0
TAP	13	336	1
HLD	14	0	6	72
HLD	14	0	7	72
TAP	14	144	6
TAP	14	144	7
BRK	14	288	0
HLD	15	0	2	384
TAP	15	96	3
TAP	15	192	4
TAP	15	288	3
HLD	16	0	5	384
TAP	16	96	4
TAP	16	192	3
TAP	16	288	4
HLD	17	0	2	384
TAP	17	96	3
TAP	17	192	4
TAP	17	288	5
TAP	18	0	6
STR	18	96	1
SCR	18	96	1	96	96	4
STR	18	96	7
SCL	18	96	7	96	96	4
HLD	19	0	5	384
TAP	19	96	4
TAP	19	192	3
TAP	19	288	2
HLD	20	0	1	384
TAP	20	96	2
TAP	20	192	3
TAP	20	288	4
TAP	21	0	5
TAP	21	96	6
TAP	21	96	7
TAP	21	192	0
TAP	21	192	1
TAP	21	288	2
TAP	22	0	3
TAP	22	0	4
TAP	22	96	1
TAP	22	96	6
BRK	22	192	0
BRK	22	192	7
HLD	23	0	2	96
TAP	23	96	3
HLD	23	192	5	96
TAP	23	288	4
HLD	24	0	1	96
TAP	24	96	2
HLD	24	192	6	96
TAP	24	288	5
TAP	25	0	3
TAP	25	48	3
TAP	25	96	3
TAP	25	96	4
TAP	25	192	6
TAP	25	240	6
TAP	25	288	6
TAP	25	288	7
TAP	26	0	1
TAP	26	48	1
TAP	26	96	0
TAP	26	96	1
TAP	26	192	6
TAP	26	192	7
TAP	26	288	0
TAP	26	288	5
HLD	27	0	1	96
TAP	27	96	0
HLD	27	192	6	96
TAP	27	288	7
HLD	28	0	2	96
TAP	28	96	1
HLD	28	192	5	96
TAP	28	288	6
TAP	29	0	2
TAP	29	0	3
TAP	29	48	2
TAP	29	48	3
TAP	29	144	4
TAP	29	144	5
TAP	29	192	4
TAP	29	192	5
TAP	29	288	0
TAP	29	288	7
STR	29	336	0
SCR	29	336	0	96	96	3
STR	29	336	7
SCL	29	336	7	96	96	4
TAP	30	240	3
TAP	30	240	4
TAP	30	288	3
TAP	30	288	4
HLD	31	0	2	96
HLD	31	0	3	96
TAP	31	144	2
TAP	31	144	3
TAP	31	192	2
TAP	31	192	3
TAP	31	288	0
HLD	32	0	4	96
HLD	32	0	5	96
TAP	32	144	4
TAP	32	144	5
TAP	32	192	4
TAP	32	192	5
TAP	32	288	7
HLD	33	0	2	96
HLD	33	0	3	96
TAP	33	144	2
TAP	33	144	3
TAP	33	192	2
TAP	33	192	3
TAP	33	288	0
TAP	33	288	7
HLD	34	0	4	96
HLD	34	0	5	96
TAP	34	144	4
TAP	34	144	5
TAP	34	192	4
TAP	34	192	5
TAP	34	288	0
TAP	34	288	7
TAP	35	0	6
TAP	35	0	7
TAP	35	48	6
TAP	35	48	7
TAP	35	144	4
TAP	35	144	5
TAP	35	240	3
TAP	35	240	5
TAP	35	336	2
TAP	35	336	4
TAP	36	48	1
TAP	36	48	3
TAP	36	144	0
TAP	36	144	2
TAP	36	240	0
TAP	36	240	7
TAP	36	288	0
TAP	36	288	7
TAP	37	0	5
TAP	37	48	4
TAP	37	96	5
TAP	37	192	2
TAP	37	240	3
TAP	37	288	2
TAP	38	0	3
TAP	38	0	4
TAP	38	96	2
TAP	38	96	5
BRK	38	192	1
BRK	38	192	6
STR	39	0	2
SV_	39	0	2	96	48	7
STR	39	0	4
SV_	39	0	4	96	48	7
TAP	39	192	0
TAP	39	192	6
TAP	39	240	0
TAP	39	240	6
TAP	39	288	0
TAP	39	288	6
HLD	40	0	1	48
HLD	40	0	3	48
HLD	40	96	4	48
HLD	40	96	6	48
TAP	40	192	2
TAP	40	192	5
TAP	40	288	3
TAP	40	288	4
STR	41	0	0
SCL	41	0	0	96	48	5
STR	41	0	1
SCR	41	0	1	96	48	4
TAP	41	192	7
TAP	41	240	0
STR	41	288	1
SI_	41	288	1	96	48	4
STR	41	288	6
SI_	41	288	6	96	48	3
TAP	42	96	0
TAP	42	96	7
TAP	42	144	0
TAP	42	144	7
TAP	42	240	2
TAP	42	240	6
TAP	42	288	2
TAP	42	288	6
STR	43	0	0
SI_	43	0	0	96	48	2
STR	43	0	7
SI_	43	0	7	96	48	5
TAP	43	192	0
TAP	43	192	1
TAP	43	240	0
TAP	43	240	1
TAP	43	288	0
TAP	43	288	1
HLD	44	0	4	48
HLD	44	0	6	48
HLD	44	96	1	48
HLD	44	96	3	48
TAP	44	192	2
TAP	44	192	5
TAP	44	288	3
TAP	44	288	4
STR	45	0	6
SCL	45	0	6	96	48	3
STR	45	0	7
SCR	45	0	7	96	48	2
TAP	45	192	0
TAP	45	240	7
STR	45	288	1
SI_	45	288	1	96	48	4
STR	45	288	6
SI_	45	288	6	96	48	3
TAP	46	96	0
TAP	46	96	7
TAP	46	144	0
TAP	46	144	7
TAP	46	240	1
TAP	46	240	5
TAP	46	288	1
TAP	46	288	5
STR	47	0	0
SI_	47	0	0	96	48	3
TAP	47	0	6
TAP	47	192	1
STR	47	192	7
SI_	47	192	7	96	48	4
STR	48	0	0
SCR	48	0	0	96	192	5
TAP	48	0	6
TAP	49	0	3
TAP	49	0	4
TAP	49	48	3
TAP	49	48	4
TAP	49	144	2
TAP	49	144	5
TAP	49	240	1
TAP	49	240	6
HLD	49	336	0	96
HLD	49	336	7	96
TAP	50	96	0
TAP	50	96	7
TAP	50	144	0
TAP	50	144	7
STR	50	192	0
SI_	50	192	0	96	48	3
STR	50	192	7
SI_	50	192	7	96	48	4
HLD	51	0	2	288
TAP	51	0	4
TAP	51	96	3
TAP	51	192	1
TAP	51	288	1
TAP	52	0	3
HLD	52	0	5	288
TAP	52	96	4
TAP	52	192	6
TAP	52	288	6
HLD	53	0	3	96
TAP	53	0	4
HLD	53	96	2	96
HLD	53	192	1	96
HLD	53	288	0	96
HLD	54	0	7	96
HLD	54	96	6	96
HLD	54	192	5	96
TAP	54	288	4
TAP	55	0	2
TAP	55	48	2
TAP	55	96	1
TAP	55	96	3
TAP	55	192	5
TAP	55	240	5
TAP	55	288	4
TAP	55	288	6
TAP	56	0	0
TAP	56	0	7
STR	56	96	1
SI_	56	96	1	96	48	4
STR	56	96	6
SI_	56	96	6	96	48	3
HLD	57	0	0	72
HLD	57	0	5	72
TAP	57	144	0
TAP	57	144	5
HLD	57	192	2	72
HLD	57	192	7	72
TAP	57	336	2
TAP	57	336	7
HLD	58	0	3	72
HLD	58	0	4	72
TAP	58	144	3
TAP	58	144	4
TAP	58	240	3
TAP	58	240	4
TAP	58	288	3
TAP	58	288	4
HLD	59	0	4	96
HLD	59	0	5	96
TAP	59	144	4
TAP	59	144	5
TAP	59	192	4
TAP	59	192	5
TAP	59	288	7
HLD	60	0	2	96
HLD	60	0	3	96
TAP	60	144	2
TAP	60	144	3
TAP	60	192	2
TAP	60	192	3
TAP	60	288	0
HLD	61	0	4	96
HLD	61	0	5	96
TAP	61	144	4
TAP	61	144	5
TAP	61	192	4
TAP	61	192	5
TAP	61	288	0
TAP	61	288	7
HLD	62	0	2	96
HLD	62	0	3	96
TAP	62	144	2
TAP	62	144	3
TAP	62	192	2
TAP	62	192	3
TAP	62	288	0
TAP	62	288	7
TAP	63	0	0
TAP	63	0	1
TAP	63	48	0
TAP	63	48	1
TAP	63	144	2
TAP	63	144	3
TAP	63	240	2
TAP	63	240	4
TAP	63	336	3
TAP	63	336	5
TAP	64	48	4
TAP	64	48	6
TAP	64	144	5
TAP	64	144	7
TAP	64	240	0
TAP	64	240	7
TAP	64	288	0
TAP	64	288	7
TAP	65	0	2
TAP	65	48	2
TAP	65	96	1
TAP	65	96	3
TAP	65	192	5
TAP	65	240	5
TAP	65	288	4
TAP	65	288	6
TAP	66	0	3
HLD	66	0	4	288
TAP	66	96	2
TAP	66	192	1
TAP	66	288	0
BRK	67	0	4
BRK	67	0	5
BRK	67	96	2
BRK	67	96	3
BRK	67	192	0
BRK	67	192	1
BRK	67	288	6
BRK	67	288	7
STR	68	0	3
SV_	68	0	3	96	48	0
STR	68	0	5
SV_	68	0	5	96	48	0
TAP	68	192	1
TAP	68	192	7
TAP	68	240	1
TAP	68	240	7
TAP	68	288	1
TAP	68	288	7
HLD	69	0	4	48
HLD	69	0	6	48
HLD	69	96	1	48
HLD	69	96	3	48
TAP	69	192	2
TAP	69	192	5
TAP	69	288	3
TAP	69	288	4
STR	70	0	6
SCL	70	0	6	96	48	3
STR	70	0	7
SCR	70	0	7	96	48	2
TAP	70	192	0
TAP	70	240	7
STR	70	288	1
SI_	70	288	1	96	48	4
STR	70	288	6
SI_	70	288	6	96	48	3
TAP	71	96	0
TAP	71	96	7
TAP	71	144	0
TAP	71	144	7
TAP	71	240	1
TAP	71	240	5
TAP	71	288	1
TAP	71	288	5
STR	72	0	0
SI_	72	0	0	96	48	2
STR	72	0	7
SI_	72	0	7	96	48	5
TAP	72	192	0
TAP	72	192	1
TAP	72	240	0
TAP	72	240	1
TAP	72	288	0
TAP	72	288	1
HLD	73	0	1	48
HLD	73	0	3	48
HLD	73	96	4	48
HLD	73	96	6	48
TAP	73	192	2
TAP	73	192	5
TAP	73	288	3
TAP	73	288	4
STR	74	0	0
SCL	74	0	0	96	48	5
STR	74	0	1
SCR	74	0	1	96	48	4
TAP	74	192	7
TAP	74	240	0
STR	74	288	1
SI_	74	288	1	96	48	4
STR	74	288	6
SI_	74	288	6	96	48	3
TAP	75	96	0
TAP	75	96	7
TAP	75	144	0
TAP	75	144	7
TAP	75	240	2
TAP	75	240	6
TAP	75	288	2
TAP	75	288	6
STR	76	0	1
SI_	76	0	1	96	48	4
STR	76	0	6
SI_	76	0	6	96	48	3
TAP	76	192	6
TAP	76	192	7
TAP	76	240	6
TAP	76	240	7
TAP	76	288	6
TAP	76	288	7
HLD	77	0	1	48
HLD	77	0	3	48
HLD	77	96	4	48
HLD	77	96	6	48
TAP	77	192	2
TAP	77	192	5
TAP	77	288	3
TAP	77	288	4
STR	78	0	0
SCL	78	0	0	96	48	5
STR	78	0	1
SCR	78	0	1	96	48	4
TAP	78	192	7
TAP	78	240	0
STR	78	288	1
SI_	78	288	1	96	48	4
STR	78	288	6
SI_	78	288	6	96	48	3
TAP	79	96	0
TAP	79	96	7
TAP	79	144	0
TAP	79	144	7
TAP	79	240	2
TAP	79	240	6
TAP	79	288	2
TAP	79	288	6
STR	80	0	2
SV_	80	0	2	96	48	7
STR	80	0	4
SV_	80	0	4	96	48	7
TAP	80	192	0
TAP	80	192	6
TAP	80	240	0
TAP	80	240	6
TAP	80	288	0
TAP	80	288	6
BRK	81	0	1
BRK	81	0	4
BRK	81	96	3
BRK	81	96	6
BRK	81	192	0
BRK	81	192	7
STR	82	0	6
SCL	82	0	6	96	48	3
STR	82	0	7
SCR	82	0	7	96	48	2
TAP	82	192	0
TAP	82	240	7
STR	82	288	1
SI_	82	288	1	96	48	4
STR	82	288	6
SI_	82	288	6	96	48	3
TAP	83	96	0
TAP	83	96	7
TAP	83	144	0
TAP	83	144	7
TAP	83	240	1
TAP	83	240	5
TAP	83	288	1
TAP	83	288	5
TAP	84	0	1
STR	84	0	7
SI_	84	0	7	96	48	4
STR	84	192	0
SI_	84	192	0	96	48	3
TAP	84	192	6
TAP	85	0	1
STR	85	0	7
SCL	85	0	7	96	192	2
TAP	86	0	3
TAP	86	0	4
TAP	86	48	3
TAP	86	48	4
TAP	86	144	2
TAP	86	144	5
TAP	86	240	1
TAP	86	240	6
HLD	86	336	0	96
HLD	86	336	7	96
TAP	87	96	0
TAP	87	96	7
TAP	87	144	0
TAP	87	144	7
STR	87	192	0
SCR	87	192	0	96	384	7
STR	87	192	7
SCL	87	192	7	96	384	0
TAP	89	0	3
TAP	89	48	3
TAP	89	96	2
TAP	89	96	4
TAP	89	192	4
TAP	89	240	4
TAP	89	288	3
TAP	89	288	5
TAP	90	0	2
TAP	90	48	2
TAP	90	96	1
TAP	90	96	3
TAP	90	192	5
TAP	90	240	5
TAP	90	288	4
TAP	90	288	6
TAP	91	0	2
TAP	91	48	2
TAP	91	96	3
TAP	91	144	3
TAP	91	192	4
TAP	91	240	4
STR	91	288	5
SCR	91	288	5	96	192	1
TAP	92	288	0
TAP	92	288	7
TAP	93	0	2
TAP	93	48	3
TAP	93	96	2
TAP	93	192	5
TAP	93	240	4
TAP	93	288	5
TAP	94	0	2
TAP	94	96	1
STR	94	96	3
SUR	94	96	3	96	96	0
TAP	95	0	5
TAP	95	48	4
TAP	95	96	5
TAP	95	192	2
TAP	95	240	3
TAP	95	288	2
TAP	96	0	5
STR	96	96	4
SUL	96	96	4	96	96	7
TAP	96	96	6
TAP	97	0	1
TAP	97	48	0
TAP	97	96	1
TAP	97	192	6
TAP	97	240	7
TAP	97	288	6
TAP	98	0	1
STR	98	96	0
SUL	98	96	0	96	96	3
TAP	98	96	2
HLD	99	0	6	72
HLD	99	0	7	72
TAP	99	144	6
TAP	99	144	7
HLD	99	192	0	72
HLD	99	192	1	72
TAP	99	336	0
TAP	99	336	1
HLD	100	0	6	72
HLD	100	0	7	72
TAP	100	144	6
TAP	100	144	7
STR	100	240	2
SI_	100	240	2	96	144	5

T_REC_TAP	459
T_REC_BRK	19
T_REC_XTP	0
T_REC_HLD	83
T_REC_XHO	0
T_REC_STR	63
T_REC_BST	0
T_REC_XST	0
T_REC_TTP	0
T_REC_THO	0
T_REC_SLD	63
T_REC_ALL	687
T_NUM_TAP	522
T_NUM_BRK	19
T_NUM_HLD	83
T_NUM_SLD	63
T_NUM_ALL	687
T_JUDGE_TAP	541
T_JUDGE_HLD	188
T_JUDGE_SLD	63
T_JUDGE_ALL	792
TTM_EACHPAIRS	235
TTM_SCR_TAP	261000
TTM_SCR_BRK	49400
TTM_SCR_HLD	83000
TTM_SCR_SLD	94500
TTM_SCR_ALL	487900
TTM_SCR_S	471450
TTM_SCR_SS	486000
TTM_RAT_ACV	10039

