VERSION	0.00.00	1.03.00
FES_MODE	0
BPM_DEF	180.000	180.000	180.000	180.000
MET_DEF	4	4
RESOLUTION	384
CLK_DEF	384
COMPATIBLE_CODE	MA2

BPM	0	0	180.000

TAP	1	0	1
TAP	1	96	0
TAP	1	192	7
TAP	1	288	6
HLD	2	0	0	192
HLD	2	0	7	192
TAP	3	0	5
TAP	3	96	4
TAP	3	192	3
TAP	3	192	6
TAP	4	0	2
TAP	4	96	3
TAP	4	192	1
TAP	4	192	4
TAP	5	0	3
TAP	5	96	2
TAP	5	192	1
TAP	5	288	0
TAP	6	0	7
TAP	6	96	6
TAP	6	192	5
TAP	6	288	4
TAP	7	0	3
TAP	7	96	2
TAP	7	192	2
TAP	7	192	3
TAP	8	0	4
TAP	8	96	5
TAP	8	192	4
TAP	8	192	5
TAP	9	0	3
TAP	9	96	2
TAP	9	192	1
TAP	9	192	3
TAP	10	0	4
TAP	10	96	5
TAP	10	192	4
TAP	10	192	6
TAP	11	0	0
TAP	11	96	1
TAP	11	192	0
TAP	11	192	1
TAP	12	0	7
TAP	12	96	6
TAP	12	192	6
TAP	12	192	7
STR	13	0	0
SXL	13	0	0	96	384	3
STR	13	0	7
SXR	13	0	7	96	384	4
HLD	15	0	3	192
TAP	15	96	4
TAP	15	192	4
HLD	16	0	4	192
TAP	16	96	3
TAP	16	192	3
HLD	17	0	2	192
TAP	17	96	3
TAP	17	192	3
HLD	18	0	5	192
TAP	18	96	4
TAP	18	192	4
HLD	19	0	0	192
TAP	19	96	7
TAP	19	192	7
HLD	20	0	7	192
TAP	20	96	0
TAP	20	192	0
HLD	21	0	1	192
TAP	21	96	0
TAP	21	192	0
HLD	22	0	6	192
TAP	22	96	7
BRK	22	192	7
TAP	23	0	2
TAP	23	96	2
TAP	23	192	1
TAP	23	192	3
HLD	24	0	2	192
TAP	24	192	3
TAP	25	0	5
TAP	25	96	5
TAP	25	192	4
TAP	25	192	6
HLD	26	0	5	192
TAP	26	192	4
TAP	27	0	5
TAP	27	96	6
TAP	27	192	0
TAP	27	192	7
TAP	28	0	1
TAP	28	96	2
TAP	28	192	3
TAP	28	192	4
TAP	29	0	3
TAP	29	96	4
TAP	29	192	3
TAP	29	192	4
STR	29	288	2
SV_	29	288	2	96	192	0
STR	29	288	5
SV_	29	288	5	96	192	7
TAP	31	0	2
TAP	31	96	2
TAP	31	192	3
TAP	31	288	3
TAP	32	0	4
TAP	32	96	4
TAP	32	192	4
TAP	32	192	5
TAP	33	0	1
TAP	33	96	1
TAP	33	192	0
TAP	33	288	0
TAP	34	0	7
TAP	34	96	7
TAP	34	192	6
TAP	34	192	7
TAP	35	0	4
TAP	35	0	6
TAP	35	96	4
TAP	35	96	6
TAP	35	192	4
TAP	35	192	6
TAP	36	0	1
TAP	36	0	3
TAP	36	96	1
TAP	36	96	3
TAP	36	192	1
TAP	36	192	3
STR	37	0	3
SI_	37	0	3	96	192	0
STR	37	0	4
SI_	37	0	4	96	192	7
TAP	38	0	0
TAP	38	96	7
BRK	38	192	0
BRK	38	192	7
TAP	39	0	6
TAP	39	96	5
TAP	39	96	7
TAP	39	192	1
TAP	39	288	0
TAP	39	288	2
TAP	40	0	0
TAP	40	0	7
TAP	40	96	0
TAP	40	96	7
TAP	40	192	1
TAP	40	192	6
TAP	41	0	1
TAP	41	96	2
TAP	41	192	3
TAP	41	288	4
TAP	42	0	5
TAP	42	96	6
BRK	42	192	0
BRK	42	192	7
TAP	43	0	5
TAP	43	96	4
TAP	43	96	6
TAP	43	192	2
TAP	43	288	1
TAP	43	288	3
TAP	44	0	3
TAP	44	0	4
TAP	44	96	3
TAP	44	96	4
TAP	44	192	2
TAP	44	192	5
TAP	45	0	2
TAP	45	96	1
TAP	45	192	0
TAP	45	288	7
TAP	46	0	6
TAP	46	96	5
BRK	46	192	3
BRK	46	192	4
HLD	47	0	2	192
HLD	47	192	3	192
HLD	48	0	4	192
TAP	48	192	5
TAP	49	0	6
TAP	49	96	7
TAP	49	192	0
TAP	49	288	1
HLD	50	0	0	192
HLD	50	0	7	192
TAP	51	0	1
TAP	51	96	1
TAP	51	192	0
TAP	51	288	0
TAP	52	0	7
TAP	52	96	7
TAP	52	192	6
TAP	52	288	6
HLD	53	0	5	192
HLD	53	192	4	192
HLD	54	0	3	192
TAP	54	192	2
STR	55	0	1
SCR	55	0	1	96	336	6
HLD	56	192	7	96
STR	57	0	0
SXL	57	0	0	96	384	3
STR	57	0	7
SXR	57	0	7	96	384	4
TAP	59	0	5
TAP	59	96	5
TAP	59	192	4
TAP	59	288	4
TAP	60	0	3
TAP	60	96	3
TAP	60	192	2
TAP	60	192	3
TAP	61	0	6
TAP	61	96	6
TAP	61	192	7
TAP	61	288	7
TAP	62	0	0
TAP	62	96	0
TAP	62	192	0
TAP	62	192	1
TAP	63	0	1
TAP	63	0	3
TAP	63	96	1
TAP	63	96	3
TAP	63	192	1
TAP	63	192	3
TAP	64	0	4
TAP	64	0	6
TAP	64	96	4
TAP	64	96	6
TAP	64	192	4
TAP	64	192	6
STR	65	0	3
SI_	65	0	3	96	192	0
STR	65	0	4
SI_	65	0	4	96	192	7
TAP	66	0	1
TAP	66	96	0
TAP	66	192	7
TAP	66	288	6
BRK	67	0	6
BRK	67	96	7
BRK	67	192	0
BRK	67	288	1
TAP	68	0	1
TAP	68	96	0
TAP	68	96	2
TAP	68	192	6
TAP	68	288	5
TAP	68	288	7
TAP	69	0	0
TAP	69	0	7
TAP	69	96	0
TAP	69	96	7
TAP	69	192	1
TAP	69	192	6
TAP	70	0	6
TAP	70	96	5
TAP	70	192	4
TAP	70	288	3
TAP	71	0	2
TAP	71	96	1
BRK	71	192	0
BRK	71	192	7
TAP	72	0	2
TAP	72	96	1
TAP	72	96	3
TAP	72	192	5
TAP	72	288	4
TAP	72	288	6
TAP	73	0	3
TAP	73	0	4
TAP	73	96	3
TAP	73	96	4
TAP	73	192	2
TAP	73	192	5
TAP	74	0	5
TAP	74	96	6
TAP	74	192	7
TAP	74	288	0
TAP	75	0	1
TAP	75	96	2
BRK	75	192	3
BRK	75	192	4
TAP	76	0	0
TAP	76	0	1
TAP	76	96	2
TAP	76	96	7
TAP	76	192	6
TAP	76	192	7
TAP	76	288	0
TAP	76	288	5
TAP	77	0	0
TAP	77	0	7
TAP	77	96	0
TAP	77	96	7
BRK	77	192	1
BRK	77	192	6
TAP	78	0	6
TAP	78	96	5
TAP	78	192	4
TAP	78	288	3
TAP	79	0	2
TAP	79	96	1
BRK	79	192	0
BRK	79	192	7
TAP	80	0	2
TAP	80	0	3
TAP	80	96	1
TAP	80	96	4
TAP	80	192	4
TAP	80	192	5
TAP	80	288	3
TAP	80	288	6
TAP	81	0	3
TAP	81	0	4
TAP	81	96	2
TAP	81	96	5
TAP	81	192	1
TAP	81	192	6
BRK	81	288	0
BRK	81	288	7
TAP	82	0	6
TAP	82	96	5
TAP	82	192	4
TAP	82	288	3
TAP	83	0	2
TAP	83	96	1
BRK	83	192	0
BRK	83	192	7
HLD	84	0	6	192
HLD	84	192	7	192
HLD	85	0	0	192
TAP	85	192	1
TAP	86	0	0
TAP	86	0	7
TAP	86	96	1
TAP	86	96	6
TAP	86	192	2
TAP	86	192	5
TAP	86	288	3
TAP	86	288	4
HLD	87	0	2	576
HLD	87	0	5	576
TAP	89	0	5
TAP	89	96	4
TAP	89	192	3
TAP	89	192	6
TAP	90	0	2
TAP	90	96	3
TAP	90	192	1
TAP	90	192	4
TAP	91	0	3
TAP	91	96	2
TAP	91	192	1
TAP	91	288	0
TAP	92	0	7
TAP	92	96	6
TAP	92	192	5
TAP	92	288	4
TAP	93	0	3
TAP	93	96	2
TAP	93	192	2
TAP	93	192	3
TAP	94	0	4
TAP	94	96	5
TAP	94	192	4
TAP	94	192	5
TAP	95	0	3
TAP	95	96	2
TAP	95	192	1
TAP	95	192	3
TAP	96	0	4
TAP	96	96	5
TAP	96	192	4
TAP	96	192	6
TAP	97	0	0
TAP	97	96	1
TAP	97	192	0
TAP	97	192	1
TAP	98	0	7
TAP	98	96	6
TAP	98	192	6
TAP	98	192	7
STR	99	0	0
SXL	99	0	0	96	384	3
STR	99	0	7
SXR	99	0	7	96	384	4

T_REC_TAP	316
T_REC_BRK	23
T_REC_XTP	0
T_REC_HLD	26
T_REC_XHO	0
T_REC_STR	13
T_REC_BST	0
T_REC_XST	0
T_REC_TTP	0
T_REC_THO	0
T_REC_SLD	13
T_REC_ALL	391
T_NUM_TAP	329
T_NUM_BRK	23
T_NUM_HLD	26
T_NUM_SLD	13
T_NUM_ALL	391
T_JUDGE_TAP	352
T_JUDGE_HLD	118
T_JUDGE_SLD	13
T_JUDGE_ALL	483
TTM_EACHPAIRS	92
TTM_SCR_TAP	164500
TTM_SCR_BRK	59800
TTM_SCR_HLD	26000
TTM_SCR_SLD	19500
TTM_SCR_ALL	269800
TTM_SCR_S	259500
TTM_SCR_SS	267500
TTM_RAT_ACV	10085

