VERSION	0.00.00	1.03.00
FES_MODE	0
BPM_DEF	180.000	180.000	180.000	180.000
MET_DEF	4	4
RESOLUTION	384
CLK_DEF	384
COMPATIBLE_CODE	MA2

BPM	0	0	180.000

TAP	3	0	3
TAP	3	192	3
TAP	4	0	2
TAP	4	192	2
TAP	5	0	1
TAP	5	192	1
HLD	6	0	0	192
TAP	7	0	7
TAP	7	192	7
TAP	8	0	6
TAP	8	192	6
TAP	9	0	5
TAP	9	192	5
HLD	10	0	4	192
TAP	11	0	3
TAP	11	192	3
TAP	12	0	2
TAP	12	0	3
TAP	12	192	2
TAP	12	192	3
TAP	13	0	4
TAP	13	192	4
BRK	14	0	4
BRK	14	0	5
TAP	15	0	3
TAP	15	192	3
TAP	16	0	4
TAP	16	96	4
TAP	16	192	4
TAP	17	0	5
TAP	17	192	5
TAP	18	0	6
TAP	18	96	6
TAP	18	192	6
TAP	19	0	7
TAP	19	192	7
TAP	20	0	0
TAP	20	96	0
TAP	20	192	0
TAP	21	0	1
TAP	21	192	1
TAP	22	0	2
TAP	22	96	2
TAP	22	192	2
TAP	23	0	3
TAP	23	192	3
TAP	24	0	2
TAP	24	192	2
TAP	25	0	4
TAP	25	96	4
TAP	25	192	4
TAP	26	0	5
TAP	26	96	5
TAP	26	192	5
TAP	27	0	3
TAP	27	192	3
TAP	28	0	4
TAP	28	192	4
STR	29	0	3
SI_	29	0	3	96	288	0
STR	29	0	4
SI_	29	0	4	96	288	7
TAP	31	0	0
TAP	31	96	0
TAP	31	192	0
TAP	32	0	7
TAP	32	96	7
TAP	32	192	7
TAP	33	0	6
TAP	33	96	6
TAP	33	192	6
TAP	34	0	5
TAP	34	96	5
TAP	34	192	5
TAP	35	0	4
TAP	35	96	4
TAP	35	192	4
TAP	36	0	3
TAP	36	96	3
TAP	36	192	3
HLD	37	0	3	192
HLD	37	0	4	192
BRK	38	0	2
BRK	38	0	5
TAP	39	0	3
TAP	39	96	3
TAP	39	192	3
TAP	40	0	2
TAP	40	96	2
TAP	40	192	2
TAP	40	192	3
TAP	41	0	1
TAP	41	96	1
TAP	41	192	0
TAP	41	288	0
TAP	42	0	7
TAP	42	96	7
TAP	42	192	0
TAP	42	192	7
TAP	43	0	7
TAP	43	96	7
TAP	43	192	7
TAP	44	0	6
TAP	44	96	6
TAP	44	192	6
TAP	44	192	7
TAP	45	0	5
TAP	45	96	5
TAP	45	192	4
TAP	45	288	4
TAP	46	0	3
TAP	46	96	3
TAP	46	192	3
TAP	46	192	4
HLD	47	0	2	192
HLD	47	0	3	192
HLD	48	0	4	192
HLD	48	0	5	192
STR	49	0	3
SI_	49	0	3	96	288	0
STR	49	0	4
SI_	49	0	4	96	288	7
TAP	51	0	7
TAP	51	192	7
TAP	52	0	6
TAP	52	192	6
TAP	53	0	5
TAP	53	192	5
TAP	54	0	4
TAP	54	192	4
TAP	55	0	3
TAP	55	192	3
TAP	56	0	2
TAP	56	192	2
TAP	57	0	0
TAP	57	0	1
TAP	57	192	0
TAP	57	192	1
BRK	58	0	0
BRK	58	0	1
TAP	59	0	0
TAP	59	192	0
TAP	60	0	1
TAP	60	192	1
TAP	61	0	2
TAP	61	192	2
TAP	62	0	3
TAP	62	96	3
TAP	62	192	3
TAP	63	0	4
TAP	63	192	4
TAP	64	0	5
TAP	64	192	5
TAP	65	0	6
TAP	65	96	6
TAP	65	192	6
STR	66	0	0
SI_	66	0	0	96	288	3
STR	66	0	7
SI_	66	0	7	96	288	4
TAP	68	0	7
TAP	68	96	7
TAP	68	192	7
TAP	69	0	6
TAP	69	96	6
TAP	69	192	6
TAP	69	192	7
TAP	70	0	5
TAP	70	96	5
TAP	70	192	4
TAP	70	288	4
TAP	71	0	3
TAP	71	96	3
TAP	71	192	3
TAP	71	192	4
TAP	72	0	3
TAP	72	96	3
TAP	72	192	3
TAP	73	0	2
TAP	73	96	2
TAP	73	192	2
TAP	73	192	3
TAP	74	0	1
TAP	74	96	1
TAP	74	192	0
TAP	74	288	0
TAP	75	0	7
TAP	75	96	7
TAP	75	192	0
TAP	75	192	7
TAP	76	0	0
TAP	76	96	0
TAP	76	192	0
TAP	77	0	1
TAP	77	96	0
TAP	77	192	1
TAP	78	0	2
TAP	78	96	2
TAP	78	192	3
TAP	78	288	3
TAP	79	0	3
TAP	79	0	4
TAP	79	96	3
TAP	79	96	4
TAP	79	192	3
TAP	79	192	4
TAP	80	0	4
TAP	80	96	4
TAP	80	192	4
TAP	81	0	4
TAP	81	0	5
TAP	81	96	4
TAP	81	96	5
BRK	81	192	4
BRK	81	192	5
TAP	82	0	6
TAP	82	96	6
TAP	82	192	7
TAP	82	288	7
TAP	83	0	0
TAP	83	0	7
TAP	83	96	0
TAP	83	96	7
TAP	83	192	0
TAP	83	192	7
STR	84	0	7
SI_	84	0	7	96	288	3
STR	86	0	0
SI_	86	0	0	96	288	4
HLD	88	0	0	768
HLD	88	0	7	768
TAP	91	0	7
TAP	91	192	7
TAP	92	0	6
TAP	92	192	6
TAP	93	0	5
TAP	93	192	5
TAP	94	0	4
TAP	94	192	4
TAP	95	0	3
TAP	95	192	3
TAP	96	0	2
TAP	96	192	2
TAP	97	0	1
TAP	97	192	1
TAP	98	0	0
TAP	98	192	0
TAP	99	0	0
TAP	99	0	7
TAP	99	192	0
TAP	99	192	7
STR	100	0	0
SI_	100	0	0	96	288	3
STR	100	0	7
SI_	100	0	7	96	288	4

T_REC_TAP	217
T_REC_BRK	8
T_REC_XTP	0
T_REC_HLD	10
T_REC_XHO	0
T_REC_STR	10
T_REC_BST	0
T_REC_XST	0
T_REC_TTP	0
T_REC_THO	0
T_REC_SLD	10
T_REC_ALL	255
T_NUM_TAP	227
T_NUM_BRK	8
T_NUM_HLD	10
T_NUM_SLD	10
T_NUM_ALL	255
T_JUDGE_TAP	235
T_JUDGE_HLD	64
T_JUDGE_SLD	10
T_JUDGE_ALL	309
TTM_EACHPAIRS	34
TTM_SCR_TAP	113500
TTM_SCR_BRK	20800
TTM_SCR_HLD	10000
TTM_SCR_SLD	15000
TTM_SCR_ALL	159300
TTM_SCR_S	153750
TTM_SCR_SS	158500
TTM_RAT_ACV	10050

