VERSION	0.00.00	1.03.00
FES_MODE	0
BPM_DEF	144.000	144.000	144.000	144.000
MET_DEF	4	4
RESOLUTION	384
CLK_DEF	384
COMPATIBLE_CODE	MA2

BPM	0	0	144.000

BRK	1	0	5
TAP	1	48	3
TAP	1	72	3
TAP	1	96	5
TAP	1	120	4
TAP	1	144	5
TAP	1	168	4
BRK	2	0	5
TAP	2	48	3
TAP	2	72	3
TAP	2	96	5
TAP	2	120	4
TAP	2	144	5
TAP	2	168	4
TAP	2	192	6
TAP	2	216	3
TAP	2	240	6
BRK	3	0	5
TAP	3	32	5
TAP	3	64	5
HLD	3	192	4	48
HLD	3	240	2	48
HLD	3	288	5	48
TAP	3	336	3
TAP	4	0	5
TAP	4	24	4
TAP	4	48	5
TAP	4	72	4
TAP	4	96	6
TAP	4	120	3
BRK	4	240	5
BRK	4	288	5
TAP	5	0	0
TAP	5	0	7
TAP	5	96	3
TAP	5	120	4
HLD	5	168	1	72
HLD	5	168	6	72
TAP	5	288	3
TAP	5	312	4
HLD	5	360	2	72
HLD	5	360	5	72
TAP	6	96	3
TAP	6	120	4
HLD	6	168	1	72
HLD	6	168	6	72
TAP	6	288	3
TAP	6	312	4
STR	6	360	0
SCR	6	360	0	96	216	7
TAP	6	360	7
BST	8	0	0
SCR	8	0	0	96	96	3
BST	8	0	7
SCL	8	0	7	96	96	4
TAP	8	288	3
TAP	8	288	4
TAP	8	336	2
TAP	8	336	5
STR	9	0	3
SXR	9	0	3	96	576	0
STR	9	0	4
SXL	9	0	4	96	576	7
TAP	11	0	0
TAP	11	0	1
TAP	11	48	2
TAP	11	96	3
TAP	11	144	4
TAP	11	144	6
TAP	11	192	5
TAP	11	240	5
TAP	11	264	4
TAP	11	312	4
TAP	11	336	5
TAP	12	0	6
TAP	12	0	7
TAP	12	48	5
TAP	12	96	4
TAP	12	144	1
TAP	12	144	3
TAP	12	192	2
TAP	12	240	2
TAP	12	264	3
TAP	12	312	3
TAP	12	336	2
STR	12	360	3
SI_	12	360	3	96	24	6
STR	13	168	4
SI_	13	168	4	96	24	1
TAP	13	168	5
TAP	13	360	2
STR	13	360	3
SI_	13	360	3	96	24	7
STR	14	168	4
SI_	14	168	4	96	24	0
TAP	14	168	5
STR	14	360	2
SI_	14	360	2	96	24	7
STR	14	360	3
SI_	14	360	3	96	24	7
STR	15	168	4
SI_	15	168	4	96	24	0
STR	15	168	5
SI_	15	168	5	96	24	0
TAP	15	360	2
TAP	15	360	6
TAP	16	48	0
TAP	16	48	5
TAP	16	96	6
TAP	16	120	7
TAP	16	192	2
TAP	16	192	7
TAP	16	240	1
TAP	16	264	0
TAP	17	0	0
TAP	17	0	7
TAP	17	48	1
HLD	17	96	2	96
TAP	17	144	3
HLD	17	192	5	96
TAP	17	240	4
HLD	17	288	2	96
TAP	17	336	3
TAP	18	0	0
TAP	18	24	1
TAP	18	48	0
TAP	18	96	2
TAP	18	96	7
TAP	18	192	5
TAP	18	240	6
TAP	18	240	7
TAP	18	288	2
TAP	18	336	0
TAP	18	336	1
TAP	19	0	2
TAP	19	24	3
TAP	19	48	2
TAP	19	96	5
TAP	19	120	4
TAP	19	144	5
TAP	19	192	3
TAP	19	192	6
TAP	19	288	0
TAP	19	288	1
TAP	20	0	6
TAP	20	24	4
TAP	20	48	6
TAP	20	96	1
TAP	20	120	3
TAP	20	144	1
TAP	20	192	1
TAP	20	192	4
TAP	20	240	6
TAP	20	240	7
TAP	20	288	1
TAP	20	288	4
TAP	21	0	3
TAP	21	0	5
TAP	21	48	2
TAP	21	96	0
TAP	21	96	1
TAP	21	144	7
STR	21	192	0
SI_	21	192	0	96	48	4
STR	21	192	6
SI_	21	192	6	96	48	2
TAP	21	288	0
TAP	21	288	6
STR	22	0	0
SI_	22	0	0	96	48	3
STR	22	0	6
SI_	22	0	6	96	48	1
STR	22	96	0
SV_	22	96	0	96	48	5
TAP	22	96	6
TAP	22	192	0
BRK	22	288	0
TAP	23	0	6
TAP	23	24	7
TAP	23	48	6
STR	23	96	0
SI_	23	96	0	96	48	6
STR	23	96	1
SI_	23	96	1	96	48	5
STR	23	192	0
SI_	23	192	0	96	48	4
STR	23	192	1
SI_	23	192	1	96	48	3
TAP	23	288	0
TAP	23	288	1
TAP	24	0	4
TAP	24	0	5
TAP	24	48	2
TAP	24	48	3
TAP	24	96	3
TAP	24	120	4
TAP	24	144	3
BRK	24	192	1
BRK	24	192	6
TAP	24	288	1
TAP	24	312	0
TAP	24	336	1
TAP	25	0	2
TAP	25	0	3
TAP	25	48	1
TAP	25	48	4
TAP	25	96	2
TAP	25	96	3
TAP	25	144	2
TAP	25	168	3
TAP	25	192	2
TAP	25	216	4
TAP	25	240	1
TAP	25	264	4
TAP	25	336	6
TAP	25	336	7
TAP	26	0	4
TAP	26	0	5
TAP	26	48	2
TAP	26	48	7
TAP	26	96	4
TAP	26	96	5
TAP	26	144	5
TAP	26	168	4
TAP	26	192	5
TAP	26	216	3
TAP	26	240	6
TAP	26	264	3
TAP	26	336	0
TAP	26	336	1
TAP	27	0	2
TAP	27	0	3
TAP	27	48	0
TAP	27	48	1
TAP	27	96	1
TAP	27	120	0
TAP	27	144	1
TAP	27	168	7
TAP	27	192	2
TAP	27	216	6
TAP	27	240	3
TAP	27	264	5
TAP	27	288	4
TAP	27	336	0
TAP	27	336	6
TAP	28	0	3
TAP	28	0	5
TAP	28	48	0
TAP	28	48	6
TAP	28	96	6
TAP	28	120	7
TAP	28	144	6
TAP	28	168	7
TAP	28	192	5
TAP	28	216	0
TAP	28	240	4
TAP	28	264	1
TAP	28	288	3
TAP	28	312	2
TAP	29	0	5
TAP	29	24	4
TAP	29	48	5
TAP	29	72	4
STR	29	96	5
SCR	29	96	5	96	48	0
TAP	29	144	3
TAP	29	192	1
STR	29	288	2
SCL	29	288	2	96	48	7
TAP	29	336	4
TAP	30	0	6
STR	30	96	0
SSL	30	96	0	96	96	4
STR	30	96	7
SSL	30	96	7	96	96	3
TAP	31	0	0
TAP	31	0	7
TAP	31	24	0
TAP	31	24	7
TAP	31	72	4
TAP	31	96	3
TAP	31	120	5
TAP	31	144	2
TAP	31	168	6
STR	31	192	1
SI_	31	192	1	96	48	4
SI_	31	192	1	96	48	5
TAP	32	0	6
TAP	32	24	7
TAP	32	48	5
TAP	32	72	0
TAP	32	96	4
TAP	32	120	1
TAP	32	144	3
TAP	32	168	2
TAP	32	216	5
TAP	32	240	4
TAP	32	264	5
BRK	32	288	1
TAP	33	0	1
TAP	33	0	4
TAP	33	48	1
TAP	33	48	4
TAP	33	96	5
TAP	33	120	4
HLD	33	168	3	48
HLD	33	168	6	48
TAP	33	240	3
TAP	33	240	6
TAP	33	288	2
TAP	33	312	3
HLD	33	360	1	48
HLD	33	360	4	48
TAP	34	48	1
TAP	34	48	4
TAP	34	96	6
TAP	34	120	7
HLD	34	168	0	48
HLD	34	168	5	48
TAP	34	240	0
TAP	34	240	5
TAP	34	288	1
TAP	34	312	0
HLD	34	360	2	48
HLD	34	360	7	48
TAP	35	48	2
TAP	35	48	7
TAP	35	96	7
TAP	35	120	0
HLD	35	168	1	48
HLD	35	168	6	48
TAP	35	240	1
TAP	35	240	6
TAP	35	288	3
TAP	35	312	4
BST	35	360	1
SXR	35	360	1	96	216	4
BST	35	360	6
SXL	35	360	6	96	216	3
BRK	37	0	1
BRK	37	0	6
TAP	38	0	0
STR	38	0	7
SCL	38	0	7	96	960	0
STR	40	0	7
SCL	40	0	7	96	624	0
STR	42	0	7
SCL	42	0	7	96	204	0
STR	42	192	7
SCL	42	192	7	96	144	0
TAP	43	0	7
TAP	43	48	6
TAP	43	96	5
TAP	43	144	4
TAP	43	192	3
TAP	43	240	2
TAP	43	288	1
TAP	43	336	0
TAP	44	0	7
TAP	44	24	6
TAP	44	48	5
TAP	44	72	4
TAP	44	96	3
TAP	44	120	2
TAP	44	144	1
TAP	44	168	0
TAP	44	192	7
TAP	44	204	6
TAP	44	216	5
TAP	44	228	4
TAP	44	240	3
TAP	44	252	2
TAP	44	264	1
TAP	44	276	0
TAP	44	288	7
TAP	44	300	6
TAP	44	312	5
TAP	44	324	4
TAP	44	336	3
TAP	44	348	2
TAP	44	360	1
TAP	44	372	0
BRK	45	0	3
BRK	45	0	7
STR	45	288	5
SI_	45	288	5	96	48	0
TAP	45	336	4
TAP	45	336	6
STR	46	96	2
SI_	46	96	2	96	48	7
TAP	46	96	3
HLD	46	120	2	48
TAP	46	120	3
TAP	46	168	4
TAP	46	288	4
STR	46	288	5
SI_	46	288	5	96	48	0
TAP	46	312	4
HLD	46	312	5	48
TAP	46	360	3
STR	47	96	2
SI_	47	96	2	96	48	7
TAP	47	96	3
HLD	47	120	2	48
TAP	47	120	3
TAP	47	168	4
STR	47	288	5
SI_	47	288	5	96	48	0
TAP	47	336	4
TAP	47	336	6
TAP	48	96	2
TAP	48	96	3
TAP	48	120	2
TAP	48	120	3
TAP	48	168	0
TAP	48	168	5
TAP	48	240	6
TAP	48	264	7
TAP	48	288	6
TAP	48	336	0
TAP	48	336	5
BRK	49	0	6
BRK	49	0	7
BRK	49	72	2
BRK	49	72	3
BRK	49	144	0
BRK	49	144	5
STR	49	288	2
SI_	49	288	2	96	48	6
TAP	49	336	1
TAP	49	336	3
STR	50	96	4
SI_	50	96	4	96	48	0
TAP	50	96	5
HLD	50	120	4	48
TAP	50	120	5
TAP	50	168	7
TAP	50	288	2
STR	50	288	3
SI_	50	288	3	96	48	7
TAP	50	312	2
HLD	50	312	3	48
TAP	50	360	0
STR	51	96	4
SI_	51	96	4	96	48	0
TAP	51	96	5
HLD	51	120	4	48
TAP	51	120	5
TAP	51	168	7
STR	51	288	2
SI_	51	288	2	96	48	6
TAP	51	336	1
TAP	51	336	3
TAP	52	96	4
TAP	52	96	5
TAP	52	120	4
TAP	52	120	5
TAP	52	168	2
TAP	52	168	7
TAP	52	240	1
TAP	52	264	0
TAP	52	288	1
TAP	52	336	3
TAP	52	336	6
TAP	53	0	3
TAP	53	0	6
TAP	53	72	2
TAP	53	72	5
HLD	53	144	1	144
HLD	53	144	4	144
BRK	54	0	1
BRK	54	0	4
STR	54	96	6
SUR	54	96	6	96	48	3
TAP	54	96	7
HLD	54	120	6	48
TAP	54	120	7
TAP	54	168	2
TAP	54	288	0
STR	54	288	1
SLL	54	288	1	96	48	3
TAP	54	312	0
HLD	54	312	1	48
TAP	54	360	4
STR	55	96	6
SLL	55	96	6	96	48	2
TAP	55	96	7
HLD	55	120	6	48
TAP	55	120	7
TAP	55	168	1
STR	55	288	0
SI_	55	288	0	96	48	5
STR	55	288	1
SI_	55	288	1	96	48	5
TAP	55	336	2
TAP	55	336	7
TAP	56	96	4
TAP	56	96	5
TAP	56	120	4
TAP	56	120	5
TAP	56	168	2
TAP	56	168	7
TAP	56	240	1
TAP	56	264	0
TAP	56	288	2
TAP	56	336	4
TAP	56	336	6
BRK	57	0	0
BRK	57	0	1
BRK	57	72	4
BRK	57	72	5
BRK	57	144	2
BRK	57	144	7
STR	57	288	6
SI_	57	288	6	96	48	2
STR	57	288	7
SI_	57	288	7	96	48	2
TAP	57	336	0
TAP	57	336	5
TAP	58	96	0
STR	58	96	1
SUL	58	96	1	96	48	4
TAP	58	120	0
HLD	58	120	1	48
TAP	58	168	5
STR	58	288	6
SLR	58	288	6	96	48	4
TAP	58	288	7
HLD	58	312	6	48
TAP	58	312	7
TAP	58	360	3
TAP	59	96	0
STR	59	96	1
SLR	59	96	1	96	48	5
TAP	59	120	0
HLD	59	120	1	48
TAP	59	168	6
STR	59	288	6
SI_	59	288	6	96	48	2
STR	59	288	7
SI_	59	288	7	96	48	2
TAP	59	336	0
TAP	59	336	5
TAP	60	96	2
TAP	60	96	3
TAP	60	120	2
TAP	60	120	3
TAP	60	168	0
TAP	60	168	5
TAP	60	240	6
TAP	60	264	7
TAP	60	288	5
TAP	60	336	1
TAP	60	336	3
TAP	61	0	3
TAP	61	0	6
TAP	61	72	1
TAP	61	72	4
TAP	61	144	3
TAP	61	144	7
TAP	61	216	0
TAP	61	216	4
TAP	61	288	4
TAP	61	312	3
TAP	61	336	4
TAP	61	360	3
TAP	62	24	1
TAP	62	24	5
TAP	62	96	3
TAP	62	96	7
TAP	62	168	2
TAP	62	168	6
TAP	62	240	0
TAP	62	240	4
TAP	62	288	0
TAP	62	312	7
TAP	62	336	0
BRK	63	0	1
BRK	63	0	6
TAP	64	0	0
TAP	64	0	7
TAP	64	48	6
TAP	64	96	4
TAP	64	144	2
TAP	64	168	3
TAP	64	216	5
TAP	64	240	4
TAP	64	288	2
TAP	64	336	1
TAP	64	336	3
TAP	65	0	0
TAP	65	0	7
TAP	65	48	1
TAP	65	96	3
TAP	65	144	5
TAP	65	168	4
TAP	65	216	2
TAP	65	240	3
TAP	65	288	5
TAP	65	336	4
TAP	65	336	6
TAP	66	0	0
TAP	66	0	7
TAP	66	48	6
TAP	66	96	4
TAP	66	144	2
TAP	66	168	3
TAP	66	216	5
TAP	66	240	4
TAP	66	288	2
TAP	66	336	1
TAP	66	336	3
TAP	67	0	0
TAP	67	0	7
TAP	67	48	1
TAP	67	96	3
TAP	67	144	5
TAP	67	168	4
TAP	67	216	2
TAP	67	240	3
TAP	67	288	5
TAP	67	336	4
TAP	67	336	5
STR	67	360	4
SI_	67	360	4	96	24	0
STR	67	360	5
SI_	67	360	5	96	24	0
STR	68	168	2
SI_	68	168	2	96	24	7
STR	68	168	3
SI_	68	168	3	96	24	7
STR	68	360	3
SI_	68	360	3	96	24	0
STR	68	360	5
SI_	68	360	5	96	24	0
STR	69	168	2
SI_	69	168	2	96	24	7
STR	69	168	4
SI_	69	168	4	96	24	7
STR	69	360	4
SF_	69	360	4	96	36	0
STR	70	168	3
SF_	70	168	3	96	36	7
BRK	70	360	1
BRK	70	360	5
TAP	71	48	0
TAP	71	48	5
TAP	71	96	6
TAP	71	120	7
TAP	71	192	2
TAP	71	192	7
TAP	71	240	1
TAP	71	264	0
TAP	71	336	3
TAP	71	336	6
TAP	72	0	5
TAP	72	24	4
TAP	72	96	1
TAP	72	96	4
TAP	72	144	2
TAP	72	168	3
TAP	72	240	3
TAP	72	240	6
TAP	72	288	0
TAP	72	312	7
TAP	72	336	0
BRK	72	360	1
BRK	72	360	6

T_REC_TAP	468
T_REC_BRK	33
T_REC_XTP	0
T_REC_HLD	36
T_REC_XHO	0
T_REC_STR	61
T_REC_BST	4
T_REC_XST	0
T_REC_TTP	0
T_REC_THO	0
T_REC_SLD	66
T_REC_ALL	668
T_NUM_TAP	529
T_NUM_BRK	37
T_NUM_HLD	36
T_NUM_SLD	66
T_NUM_ALL	668
T_JUDGE_TAP	566
T_JUDGE_HLD	49
T_JUDGE_SLD	66
T_JUDGE_ALL	681
TTM_EACHPAIRS	162
TTM_SCR_TAP	264500
TTM_SCR_BRK	96200
TTM_SCR_HLD	36000
TTM_SCR_SLD	99000
TTM_SCR_ALL	495700
TTM_SCR_S	477250
TTM_SCR_SS	492000
TTM_RAT_ACV	10075

