VERSION	0.00.00	1.03.00
FES_MODE	0
BPM_DEF	144.000	144.000	144.000	144.000
MET_DEF	4	4
RESOLUTION	384
CLK_DEF	384
COMPATIBLE_CODE	MA2

BPM	0	0	144.000

BRK	1	240	2
BRK	2	288	3
HLD	3	0	5	96
TAP	3	96	4
HLD	3	192	2	96
TAP	3	288	3
HLD	4	0	4	96
TAP	4	0	5
HLD	4	96	3	96
HLD	4	192	2	96
TAP	4	240	5
TAP	4	288	5
TAP	5	0	1
TAP	5	0	6
HLD	5	96	1	72
TAP	5	168	3
HLD	5	288	6	72
TAP	5	360	4
HLD	6	96	2	72
TAP	6	168	0
HLD	6	288	5	72
HLD	6	360	7	312
TAP	7	96	4
TAP	7	192	5
TAP	7	288	6
TAP	8	0	0
TAP	8	0	5
TAP	8	96	1
TAP	8	144	2
TAP	8	192	3
TAP	8	288	2
TAP	8	288	5
TAP	8	336	1
TAP	8	336	6
STR	9	0	0
SUL	9	0	0	96	576	7
STR	9	0	7
SCL	9	0	7	96	576	0
TAP	11	0	0
HLD	11	0	1	96
TAP	11	96	4
HLD	11	192	6	96
TAP	11	192	7
TAP	11	288	3
TAP	12	0	0
HLD	12	0	1	96
TAP	12	96	4
TAP	12	192	7
TAP	12	240	7
TAP	12	288	0
TAP	12	288	7
STR	12	352	1
SI_	12	352	1	96	48	3
STR	13	160	0
SI_	13	160	0	96	48	4
TAP	13	160	2
STR	13	352	1
SI_	13	352	1	96	48	3
TAP	13	352	7
STR	14	160	0
SI_	14	160	0	96	48	4
TAP	14	160	2
STR	14	352	1
SI_	14	352	1	96	48	3
TAP	14	352	7
STR	15	160	0
SI_	15	160	0	96	48	4
TAP	15	160	2
BRK	15	352	1
BRK	15	352	6
TAP	16	48	1
TAP	16	96	0
TAP	16	96	2
TAP	16	192	5
TAP	16	240	4
TAP	16	240	6
TAP	17	0	0
TAP	17	0	6
TAP	17	96	1
TAP	17	96	3
TAP	17	192	2
TAP	17	240	3
TAP	17	288	2
HLD	18	0	1	96
HLD	18	96	7	96
BRK	18	192	0
TAP	18	288	3
TAP	18	288	4
TAP	19	0	1
TAP	19	0	7
TAP	19	96	4
TAP	19	96	6
TAP	19	192	5
TAP	19	240	4
TAP	19	288	5
HLD	20	0	6	96
HLD	20	96	0	96
TAP	20	192	7
TAP	20	240	7
TAP	20	288	0
BRK	20	336	0
HLD	21	0	6	96
TAP	21	96	4
HLD	21	192	1	96
TAP	21	288	3
STR	22	0	1
SV_	22	0	1	96	96	3
STR	22	0	5
SCR	22	0	5	96	96	1
BRK	22	288	3
TAP	23	0	3
HLD	23	0	4	96
TAP	23	96	6
HLD	23	192	3	96
TAP	23	192	4
TAP	23	288	7
TAP	23	336	0
TAP	24	48	1
TAP	24	48	7
TAP	24	120	4
TAP	24	120	6
BRK	24	192	1
BRK	24	192	3
TAP	24	288	3
TAP	24	288	4
TAP	25	0	0
TAP	25	0	1
STR	25	96	1
SCR	25	96	1	96	48	3
TAP	25	96	6
TAP	25	192	7
TAP	25	288	1
BRK	25	336	1
TAP	26	0	0
STR	26	96	1
SCR	26	96	1	96	48	4
TAP	26	96	6
TAP	26	192	7
TAP	26	288	1
BRK	26	336	1
TAP	27	0	7
STR	27	96	0
SCR	27	96	0	96	48	3
TAP	27	96	5
TAP	27	192	6
TAP	27	288	0
BRK	27	336	0
TAP	28	0	6
TAP	28	96	4
STR	28	96	7
SCR	28	96	7	96	48	2
TAP	28	192	5
TAP	28	288	0
BRK	28	336	0
TAP	29	0	6
HLD	29	96	5	96
TAP	29	96	7
HLD	29	192	3	96
TAP	29	288	1
BRK	29	336	1
TAP	30	0	2
TAP	30	96	3
HLD	30	96	4	96
HLD	30	192	6	96
TAP	30	288	0
BRK	30	336	0
TAP	31	0	1
TAP	31	96	5
TAP	31	144	4
TAP	31	192	3
TAP	31	288	1
BRK	31	336	0
TAP	32	0	7
TAP	32	48	1
TAP	32	48	7
TAP	32	120	1
TAP	32	120	3
TAP	32	192	4
TAP	32	192	6
TAP	32	288	5
STR	32	288	6
SI_	32	288	6	96	48	1
TAP	33	96	1
STR	33	96	2
SI_	33	96	2	96	48	5
TAP	33	288	3
STR	33	288	4
SI_	33	288	4	96	48	7
STR	34	96	0
SI_	34	96	0	96	48	3
TAP	34	96	7
TAP	34	288	1
STR	34	288	7
SCL	34	288	7	96	48	4
STR	35	96	3
SCL	35	96	3	96	48	0
TAP	35	96	6
TAP	35	288	0
TAP	35	288	7
HLD	35	360	1	408
HLD	35	360	6	408
BRK	37	96	0
BRK	37	96	7
BRK	37	144	1
BRK	37	144	6
BRK	37	192	2
BRK	37	192	5
BRK	37	240	3
BRK	37	240	4
STR	38	0	0
SCR	38	0	0	96	192	6
HLD	38	0	7	288
HLD	39	0	3	288
STR	39	0	4
SCR	39	0	4	96	192	2
HLD	40	0	0	288
STR	40	0	7
SCL	40	0	7	96	192	1
STR	41	0	3
SCL	41	0	3	96	192	5
HLD	41	0	4	288
TAP	42	0	1
STR	42	0	3
SI_	42	0	3	96	48	0
TAP	42	192	1
STR	42	192	3
SI_	42	192	3	96	48	7
TAP	43	0	1
STR	43	0	3
SI_	43	0	3	96	48	6
TAP	43	192	1
STR	43	192	3
SI_	43	192	3	96	48	5
HLD	44	0	1	96
HLD	44	0	3	96
BRK	44	192	7
BRK	44	240	6
BRK	44	288	5
BRK	44	336	4
BRK	45	0	3
BRK	45	48	2
BRK	45	96	1
BRK	45	144	0
BRK	45	192	7
TAP	45	288	5
TAP	45	336	6
TAP	46	0	0
TAP	46	0	7
TAP	46	96	0
STR	46	96	1
SI_	46	96	1	96	48	3
TAP	46	192	0
STR	46	288	1
SI_	46	288	1	96	48	4
TAP	46	288	7
TAP	47	0	7
STR	47	96	1
SI_	47	96	1	96	48	5
TAP	47	96	6
TAP	47	192	6
TAP	47	288	2
TAP	47	336	1
HLD	48	0	0	288
TAP	48	0	6
STR	48	96	7
SCL	48	96	7	96	96	2
TAP	49	0	1
TAP	49	0	3
TAP	49	72	4
TAP	49	72	6
TAP	49	144	0
TAP	49	144	7
TAP	49	288	2
TAP	49	336	1
TAP	50	0	0
TAP	50	0	7
STR	50	96	6
SI_	50	96	6	96	48	4
TAP	50	96	7
TAP	50	192	7
TAP	50	288	0
STR	50	288	6
SI_	50	288	6	96	48	3
TAP	51	0	0
TAP	51	96	1
STR	51	96	6
SI_	51	96	6	96	48	2
TAP	51	192	1
TAP	51	288	5
TAP	51	336	6
TAP	52	0	1
HLD	52	0	7	288
STR	52	96	0
SCR	52	96	0	96	96	5
TAP	53	0	1
TAP	53	0	3
TAP	53	72	4
TAP	53	72	6
HLD	53	144	3	96
HLD	53	144	4	96
STR	53	288	1
SI_	53	288	1	96	48	4
TAP	53	288	5
TAP	54	0	7
TAP	54	96	2
STR	54	96	6
SI_	54	96	6	96	48	3
TAP	54	192	0
STR	54	288	1
SI_	54	288	1	96	48	4
TAP	54	288	5
TAP	55	0	7
TAP	55	96	2
STR	55	96	6
SI_	55	96	6	96	48	3
TAP	55	192	0
TAP	55	288	1
TAP	55	336	2
TAP	56	0	3
TAP	56	0	7
STR	56	96	2
SCL	56	96	2	96	48	7
STR	56	96	6
SCL	56	96	6	96	48	3
TAP	57	0	0
TAP	57	0	2
TAP	57	72	5
TAP	57	72	7
TAP	57	144	1
TAP	57	144	6
TAP	57	288	4
STR	57	288	5
SCR	57	288	5	96	48	0
TAP	58	0	1
STR	58	96	2
SCL	58	96	2	96	48	7
TAP	58	96	3
TAP	58	192	6
TAP	58	288	4
STR	58	288	5
SCR	58	288	5	96	48	0
TAP	59	0	1
STR	59	96	2
SCL	59	96	2	96	48	7
TAP	59	96	3
TAP	59	192	6
TAP	59	288	6
TAP	59	336	5
TAP	60	0	0
TAP	60	0	4
STR	60	96	1
SCR	60	96	1	96	48	4
STR	60	96	5
SCR	60	96	5	96	48	0
TAP	61	0	1
TAP	61	0	3
TAP	61	72	4
TAP	61	72	6
TAP	61	144	1
TAP	61	144	4
HLD	61	216	3	96
HLD	61	216	6	96
TAP	62	24	4
TAP	62	24	6
TAP	62	96	1
TAP	62	96	3
TAP	62	168	3
TAP	62	168	6
HLD	62	240	1	96
HLD	62	240	4	96
BRK	63	0	0
BRK	63	0	7
TAP	63	144	0
TAP	63	192	7
TAP	63	240	0
TAP	63	288	1
TAP	63	288	6
STR	64	0	3
SCL	64	0	3	96	288	7
TAP	64	0	4
TAP	64	96	4
TAP	64	192	4
TAP	64	288	4
TAP	65	0	4
TAP	65	96	2
TAP	65	96	5
TAP	65	144	3
TAP	65	192	4
TAP	65	240	3
TAP	65	288	2
TAP	65	288	5
TAP	66	0	3
STR	66	0	4
SCR	66	0	4	96	288	0
TAP	66	96	3
TAP	66	192	3
TAP	66	288	3
TAP	67	0	3
TAP	67	96	2
TAP	67	96	4
TAP	67	192	7
TAP	67	240	7
TAP	67	288	0
TAP	67	288	7
STR	67	352	1
SI_	67	352	1	96	32	3
STR	68	160	0
SI_	68	160	0	96	48	4
TAP	68	160	2
STR	68	352	1
SI_	68	352	1	96	32	3
TAP	68	352	7
STR	69	160	0
SI_	69	160	0	96	48	4
TAP	69	160	2
STR	69	352	1
SI_	69	352	1	96	48	3
TAP	69	352	7
STR	70	160	0
SI_	70	160	0	96	48	4
TAP	70	160	2
BRK	70	352	1
BRK	70	352	6
TAP	71	48	1
TAP	71	96	0
TAP	71	96	2
TAP	71	192	6
TAP	71	240	5
TAP	71	240	7
TAP	71	336	2
TAP	71	336	5
TAP	72	0	3
TAP	72	0	4
TAP	72	96	1
TAP	72	96	6
TAP	72	144	0
TAP	72	144	7
HLD	72	192	0	120
HLD	72	192	7	120
TAP	72	360	1
TAP	72	360	6

T_REC_TAP	249
T_REC_BRK	37
T_REC_XTP	0
T_REC_HLD	43
T_REC_XHO	0
T_REC_STR	56
T_REC_BST	0
T_REC_XST	0
T_REC_TTP	0
T_REC_THO	0
T_REC_SLD	56
T_REC_ALL	441
T_NUM_TAP	305
T_NUM_BRK	37
T_NUM_HLD	43
T_NUM_SLD	56
T_NUM_ALL	441
T_JUDGE_TAP	342
T_JUDGE_HLD	131
T_JUDGE_SLD	56
T_JUDGE_ALL	529
TTM_EACHPAIRS	122
TTM_SCR_TAP	152500
TTM_SCR_BRK	96200
TTM_SCR_HLD	43000
TTM_SCR_SLD	84000
TTM_SCR_ALL	375700
TTM_SCR_S	360850
TTM_SCR_SS	372000
TTM_RAT_ACV	10099

