VERSION	0.00.00	1.03.00
FES_MODE	0
BPM_DEF	144.000	144.000	144.000	144.000
MET_DEF	4	4
RESOLUTION	384
CLK_DEF	384
COMPATIBLE_CODE	MA2

BPM	0	0	144.000

TAP	1	0	2
TAP	1	192	2
TAP	1	192	3
TAP	2	0	5
TAP	2	192	4
TAP	2	192	5
TAP	3	0	2
TAP	3	192	2
TAP	3	192	3
TAP	4	0	4
TAP	4	192	2
TAP	4	192	5
STR	5	0	1
SCR	5	0	1	96	144	4
STR	6	0	6
SCL	6	0	6	96	144	3
TAP	7	0	2
TAP	7	96	2
TAP	7	192	3
TAP	7	288	3
TAP	7	288	4
HLD	8	0	3	192
HLD	8	0	4	192
TAP	8	288	3
STR	8	288	4
SCR	8	288	4	96	576	2
TAP	11	0	1
TAP	11	96	2
TAP	11	192	3
TAP	11	288	4
TAP	11	288	5
TAP	12	0	6
TAP	12	96	5
TAP	12	192	3
TAP	12	192	4
TAP	13	0	3
TAP	13	96	3
TAP	13	192	2
TAP	13	288	2
TAP	14	0	1
TAP	14	96	1
TAP	14	192	0
TAP	14	192	1
TAP	15	0	5
TAP	15	96	5
TAP	15	192	6
TAP	15	288	6
BRK	16	0	0
BRK	16	0	7
TAP	16	192	1
TAP	16	192	6
HLD	17	0	5	192
TAP	17	96	4
TAP	17	192	4
HLD	18	0	2	192
TAP	18	96	3
TAP	18	192	3
HLD	19	0	4	192
TAP	19	96	3
TAP	19	192	3
TAP	20	0	3
TAP	20	0	4
TAP	20	96	3
TAP	20	96	4
TAP	20	192	3
TAP	20	192	4
HLD	21	0	2	192
TAP	21	96	3
TAP	21	192	3
HLD	22	0	5	192
TAP	22	96	4
TAP	22	192	4
HLD	23	0	3	192
TAP	23	96	4
TAP	23	192	4
TAP	24	0	3
TAP	24	0	4
TAP	24	96	3
TAP	24	96	4
TAP	24	192	2
TAP	24	192	5
HLD	25	0	1	192
TAP	25	96	0
TAP	25	192	0
HLD	26	0	6	192
TAP	26	96	7
TAP	26	192	7
HLD	27	0	0	192
TAP	27	96	7
TAP	27	192	7
TAP	28	0	0
TAP	28	0	7
TAP	28	96	0
TAP	28	96	7
TAP	28	192	1
TAP	28	192	6
HLD	29	0	6	192
TAP	29	96	7
TAP	29	192	7
HLD	30	0	1	192
TAP	30	96	0
TAP	30	192	0
HLD	31	0	3	192
TAP	31	96	4
TAP	31	192	4
TAP	32	0	3
TAP	32	0	4
TAP	32	96	2
TAP	32	96	5
TAP	32	192	1
TAP	32	192	6
TAP	32	288	0
STR	32	288	7
SCL	32	288	7	96	96	4
STR	33	288	3
SCL	33	288	3	96	96	0
STR	34	288	7
SCL	34	288	7	96	96	4
STR	35	288	3
SCL	35	288	3	96	96	0
TAP	36	288	0
TAP	36	288	7
BRK	37	0	1
BRK	37	0	6
TAP	38	0	5
TAP	38	96	5
TAP	38	192	4
TAP	38	288	4
TAP	39	0	3
TAP	39	96	2
TAP	39	192	1
TAP	39	192	4
TAP	40	0	2
TAP	40	96	2
TAP	40	192	3
TAP	40	288	3
TAP	41	0	4
TAP	41	96	5
TAP	41	192	3
TAP	41	192	6
TAP	42	0	2
TAP	42	96	2
TAP	42	192	1
TAP	42	192	3
TAP	43	0	5
TAP	43	96	5
TAP	43	192	4
TAP	43	192	6
TAP	44	0	3
TAP	44	96	3
TAP	44	192	4
TAP	44	288	4
TAP	45	0	3
TAP	45	96	4
TAP	45	192	3
TAP	45	288	2
TAP	45	288	5
BRK	46	0	1
TAP	46	96	0
TAP	46	96	1
TAP	46	192	6
TAP	46	288	6
TAP	46	288	7
TAP	47	0	1
TAP	47	96	0
TAP	47	96	1
TAP	47	192	2
TAP	47	192	7
TAP	48	0	5
TAP	48	96	4
TAP	48	96	5
TAP	48	192	2
STR	48	288	2
SI_	48	288	2	96	144	7
STR	48	288	3
SI_	48	288	3	96	144	6
TAP	49	288	0
TAP	49	288	5
TAP	50	0	6
TAP	50	96	6
TAP	50	96	7
TAP	50	192	1
TAP	50	288	0
TAP	50	288	1
TAP	51	0	6
TAP	51	96	6
TAP	51	96	7
TAP	51	192	0
TAP	51	192	5
TAP	52	0	2
TAP	52	96	2
TAP	52	96	3
TAP	52	192	5
STR	52	288	4
SI_	52	288	4	96	144	1
STR	52	288	5
SI_	52	288	5	96	144	0
TAP	53	288	2
TAP	53	288	7
TAP	54	0	3
TAP	54	96	2
TAP	54	96	4
TAP	54	192	5
TAP	54	288	4
TAP	54	288	6
TAP	55	0	2
TAP	55	96	1
TAP	55	96	3
TAP	55	192	0
TAP	55	192	4
TAP	56	0	4
TAP	56	96	3
TAP	56	96	5
TAP	56	192	2
STR	56	288	1
SCL	56	288	1	96	192	4
TAP	56	288	3
TAP	57	288	2
TAP	57	288	3
TAP	58	0	4
TAP	58	96	3
TAP	58	96	5
TAP	58	192	2
TAP	58	288	1
TAP	58	288	3
TAP	59	0	5
TAP	59	96	4
TAP	59	96	6
TAP	59	192	3
TAP	59	192	7
TAP	60	0	3
TAP	60	96	2
TAP	60	96	4
TAP	60	192	5
TAP	60	288	4
TAP	60	288	6
TAP	61	0	3
TAP	61	96	2
TAP	61	96	4
TAP	61	192	1
TAP	61	192	5
STR	61	288	0
SI_	61	288	0	96	192	3
SI_	61	288	0	96	192	5
TAP	61	288	6
HLD	63	0	3	96
HLD	63	0	4	96
TAP	63	192	3
TAP	63	192	4
STR	63	288	3
SCL	63	288	3	96	576	5
TAP	63	288	4
TAP	66	0	6
TAP	66	96	6
TAP	66	96	7
TAP	66	192	1
TAP	66	288	0
TAP	66	288	1
TAP	67	0	7
TAP	67	96	0
TAP	67	192	1
TAP	67	192	6
TAP	68	0	3
TAP	68	0	4
TAP	68	96	5
TAP	68	192	3
TAP	68	192	4
TAP	68	288	2
TAP	69	0	4
TAP	69	0	5
TAP	69	96	6
TAP	69	192	2
TAP	69	192	3
TAP	69	288	1
TAP	70	0	0
TAP	70	96	1
TAP	70	96	7
TAP	70	192	2
TAP	70	192	6
TAP	70	288	3
TAP	70	288	5
TAP	71	0	4
TAP	71	96	3
TAP	71	192	2
TAP	71	288	1
TAP	71	288	4
TAP	72	0	2
TAP	72	96	3
TAP	72	192	3
TAP	72	192	4
HLD	72	288	3	72
HLD	72	288	4	72

T_REC_TAP	240
T_REC_BRK	5
T_REC_XTP	0
T_REC_HLD	18
T_REC_XHO	0
T_REC_STR	14
T_REC_BST	0
T_REC_XST	0
T_REC_TTP	0
T_REC_THO	0
T_REC_SLD	15
T_REC_ALL	292
T_NUM_TAP	254
T_NUM_BRK	5
T_NUM_HLD	18
T_NUM_SLD	15
T_NUM_ALL	292
T_JUDGE_TAP	259
T_JUDGE_HLD	64
T_JUDGE_SLD	15
T_JUDGE_ALL	338
TTM_EACHPAIRS	78
TTM_SCR_TAP	127000
TTM_SCR_BRK	13000
TTM_SCR_HLD	18000
TTM_SCR_SLD	22500
TTM_SCR_ALL	180500
TTM_SCR_S	174600
TTM_SCR_SS	180000
TTM_RAT_ACV	10027

