VERSION	0.00.00	1.03.00
FES_MODE	0
BPM_DEF	144.000	144.000	144.000	144.000
MET_DEF	4	4
RESOLUTION	384
CLK_DEF	384
COMPATIBLE_CODE	MA2

BPM	0	0	144.000

STR	5	0	0
SI_	5	0	0	96	288	3
STR	7	0	7
SI_	7	0	7	96	288	4
TAP	9	0	0
TAP	9	192	0
TAP	10	0	0
TAP	11	0	1
TAP	11	192	1
TAP	12	0	1
TAP	13	0	2
TAP	13	0	3
TAP	13	192	2
TAP	13	192	3
TAP	14	0	2
TAP	14	0	3
TAP	15	0	4
TAP	15	0	5
TAP	15	192	4
TAP	15	192	5
TAP	16	0	4
TAP	16	0	5
TAP	17	0	7
TAP	17	192	7
TAP	18	0	6
TAP	18	192	6
TAP	19	0	5
TAP	19	192	5
TAP	20	0	4
TAP	20	96	4
TAP	20	192	3
TAP	20	192	4
TAP	21	0	3
TAP	21	192	3
TAP	22	0	2
TAP	22	192	2
TAP	23	0	1
TAP	23	192	1
TAP	24	0	0
TAP	24	96	0
TAP	24	192	0
TAP	24	192	7
HLD	25	0	1	192
HLD	26	0	2	192
HLD	27	0	3	192
TAP	28	0	4
TAP	28	96	4
TAP	28	192	3
TAP	28	192	4
HLD	29	0	5	192
HLD	30	0	6	192
HLD	31	0	7	192
TAP	32	0	0
TAP	32	96	0
TAP	32	192	0
TAP	32	192	7
STR	33	0	7
SI_	33	0	7	96	288	4
STR	35	0	0
SI_	35	0	0	96	288	3
TAP	37	0	3
TAP	37	0	4
HLD	38	0	5	576
HLD	39	0	4	192
HLD	40	0	2	576
HLD	41	0	3	192
HLD	42	0	1	576
HLD	43	0	0	192
HLD	44	0	6	576
HLD	45	0	7	192
BRK	46	0	0
TAP	46	96	0
TAP	46	192	0
TAP	47	0	1
TAP	47	96	1
TAP	47	192	1
TAP	48	0	2
TAP	48	96	2
TAP	48	192	2
TAP	49	0	3
TAP	49	96	3
TAP	49	192	3
TAP	49	192	4
TAP	50	0	4
TAP	50	96	4
TAP	50	192	4
TAP	51	0	5
TAP	51	96	5
TAP	51	192	5
TAP	52	0	6
TAP	52	96	6
TAP	52	192	6
TAP	53	0	7
TAP	53	96	7
TAP	53	192	0
TAP	53	192	7
TAP	54	0	6
TAP	54	96	6
TAP	54	192	5
TAP	54	288	5
TAP	55	0	4
TAP	55	96	4
TAP	55	192	3
TAP	55	192	4
TAP	56	0	2
TAP	56	96	2
TAP	56	192	1
TAP	56	288	1
TAP	57	0	0
TAP	57	96	0
TAP	57	192	0
TAP	57	192	7
TAP	58	0	1
TAP	58	96	1
TAP	58	192	2
TAP	58	288	2
TAP	59	0	3
TAP	59	96	3
TAP	59	192	3
TAP	59	192	4
TAP	60	0	4
TAP	60	96	4
TAP	60	192	5
TAP	60	288	5
TAP	61	0	6
TAP	61	96	6
TAP	61	192	6
TAP	61	192	7
TAP	62	0	1
TAP	62	96	1
TAP	62	192	0
TAP	62	192	1
BRK	63	0	0
BRK	63	0	7
TAP	64	0	1
TAP	64	96	1
TAP	64	192	0
TAP	64	192	1
TAP	65	0	2
TAP	65	96	2
TAP	65	192	2
TAP	65	192	3
TAP	66	0	5
TAP	66	96	5
TAP	66	192	4
TAP	66	192	5
TAP	67	0	6
TAP	67	96	6
TAP	67	192	6
TAP	67	192	7
TAP	68	0	0
TAP	68	0	1
TAP	68	96	0
TAP	68	96	1
TAP	68	192	0
TAP	68	192	1
TAP	69	0	6
TAP	69	0	7
TAP	69	96	6
TAP	69	96	7
TAP	69	192	6
TAP	69	192	7
TAP	70	0	0
TAP	70	0	1
TAP	70	96	0
TAP	70	96	1
TAP	70	192	0
TAP	70	192	1
HLD	71	0	0	768
HLD	71	0	7	768

T_REC_TAP	143
T_REC_BRK	3
T_REC_XTP	0
T_REC_HLD	16
T_REC_XHO	0
T_REC_STR	4
T_REC_BST	0
T_REC_XST	0
T_REC_TTP	0
T_REC_THO	0
T_REC_SLD	4
T_REC_ALL	170
T_NUM_TAP	147
T_NUM_BRK	3
T_NUM_HLD	16
T_NUM_SLD	4
T_NUM_ALL	170
T_JUDGE_TAP	150
T_JUDGE_HLD	120
T_JUDGE_SLD	4
T_JUDGE_ALL	274
TTM_EACHPAIRS	33
TTM_SCR_TAP	73500
TTM_SCR_BRK	7800
TTM_SCR_HLD	16000
TTM_SCR_SLD	6000
TTM_SCR_ALL	103300
TTM_SCR_S	99950
TTM_SCR_SS	103000
TTM_RAT_ACV	10029

