VERSION	0.00.00	1.03.00
FES_MODE	0
BPM_DEF	200.000	200.000	200.000	200.000
MET_DEF	4	4
RESOLUTION	384
CLK_DEF	384
COMPATIBLE_CODE	MA2

BPM	0	0	200.000
MET	0	0	4	4
MET	103	0	4	2
MET	103	192	4	4
MET	115	192	4	2
MET	116	0	4	4

HLD	1	0	2	96
TAP	1	0	4
TAP	1	96	3
TAP	1	144	2
HLD	1	144	4	96
TAP	1	240	2
TAP	1	288	3
TAP	1	336	4
TAP	2	0	3
HLD	2	0	5	96
TAP	2	96	4
HLD	2	144	3	96
TAP	2	144	5
TAP	2	240	5
TAP	2	288	4
TAP	2	336	3
HLD	3	0	2	96
TAP	3	0	4
TAP	3	96	3
TAP	3	144	2
HLD	3	144	4	96
TAP	3	240	2
TAP	3	288	3
TAP	3	336	4
BST	4	0	5
SI_	4	0	5	96	48	1
BRK	4	96	5
BST	4	144	0
SF_	4	144	0	96	48	4
BRK	4	240	0
TAP	5	0	0
TAP	5	48	7
TAP	5	96	6
TAP	5	144	5
TAP	5	168	4
TAP	5	216	4
TAP	5	240	5
TAP	5	288	0
TAP	5	288	6
TAP	6	0	7
TAP	6	48	0
TAP	6	96	1
TAP	6	144	2
TAP	6	168	3
TAP	6	216	3
TAP	6	240	2
TAP	6	288	1
TAP	6	288	7
TAP	7	0	7
TAP	7	48	6
TAP	7	96	5
TAP	7	144	4
TAP	7	168	3
TAP	7	216	3
TAP	7	240	4
TAP	7	288	2
TAP	7	288	5
TAP	8	0	3
HLD	8	0	7	84
TAP	8	12	2
TAP	8	24	1
HLD	8	36	0	48
TAP	8	96	1
TAP	8	96	6
TAP	8	108	2
TAP	8	108	5
TAP	8	120	3
TAP	8	120	4
TAP	8	192	2
TAP	8	216	3
TAP	8	240	1
TAP	8	264	4
TAP	8	288	0
TAP	8	312	5
TAP	8	336	7
TAP	8	360	6
TAP	9	0	0
STR	9	0	5
SI_	9	0	5	96	48	2
TAP	9	96	7
TAP	9	144	0
STR	9	192	1
SI_	9	192	1	96	48	6
TAP	9	288	3
TAP	9	336	4
STR	10	0	5
SI_	10	0	5	96	48	0
TAP	10	96	3
TAP	10	144	2
STR	10	192	1
SI_	10	192	1	96	48	4
TAP	10	288	0
TAP	10	336	7
TAP	11	0	2
TAP	11	0	6
TAP	11	48	5
TAP	11	96	0
TAP	11	96	4
TAP	11	144	5
TAP	11	192	2
TAP	11	192	6
TAP	11	240	5
TAP	11	288	0
TAP	11	288	4
TAP	11	336	5
TAP	12	0	2
TAP	12	0	6
TAP	12	48	3
TAP	12	96	4
TAP	12	96	7
TAP	12	144	3
TAP	12	192	2
TAP	12	192	6
TAP	12	240	3
TAP	12	240	7
TAP	12	288	0
TAP	12	288	4
STR	13	0	2
SI_	13	0	2	96	48	5
TAP	13	0	7
TAP	13	96	0
TAP	13	144	7
STR	13	192	6
SI_	13	192	6	96	48	1
TAP	13	288	4
TAP	13	336	3
STR	14	0	2
SI_	14	0	2	96	48	7
TAP	14	96	4
TAP	14	144	5
STR	14	192	6
SI_	14	192	6	96	48	2
SI_	14	192	6	96	48	3
TAP	15	0	1
TAP	15	0	5
TAP	15	48	2
TAP	15	96	3
TAP	15	96	7
TAP	15	144	2
TAP	15	192	1
TAP	15	192	5
TAP	15	240	2
TAP	15	288	3
TAP	15	288	7
TAP	15	336	2
TAP	16	0	1
TAP	16	0	5
TAP	16	48	4
TAP	16	96	0
TAP	16	96	3
TAP	16	144	4
STR	16	192	1
SI_	16	192	1	96	48	4
STR	16	192	5
SI_	16	192	5	96	48	0
TAP	16	288	1
TAP	16	288	5
STR	17	0	0
SCR	17	0	0	96	48	4
TAP	17	48	6
STR	17	96	4
SI_	17	96	4	96	48	0
TAP	17	144	6
STR	17	192	0
SI_	17	192	0	96	48	4
TAP	17	240	6
TAP	17	288	4
TAP	17	336	6
STR	18	0	7
SCL	18	0	7	96	48	3
TAP	18	48	1
STR	18	96	3
SI_	18	96	3	96	48	7
TAP	18	144	1
STR	18	192	7
SI_	18	192	7	96	48	3
TAP	18	240	1
TAP	18	288	3
TAP	18	336	1
TAP	19	0	7
TAP	19	48	1
TAP	19	96	2
TAP	19	96	3
TAP	19	144	1
TAP	19	192	7
TAP	19	216	0
TAP	19	240	6
TAP	19	288	4
TAP	19	312	3
TAP	19	336	5
TAP	20	0	0
TAP	20	48	6
TAP	20	96	4
TAP	20	96	5
TAP	20	144	6
TAP	20	192	0
TAP	20	216	7
TAP	20	240	1
TAP	20	288	3
TAP	20	312	4
TAP	20	336	2
STR	21	0	7
SCL	21	0	7	96	48	3
TAP	21	48	1
STR	21	96	3
SI_	21	96	3	96	48	7
TAP	21	144	1
STR	21	192	7
SI_	21	192	7	96	48	3
TAP	21	240	1
TAP	21	288	3
TAP	21	336	1
STR	22	0	0
SCR	22	0	0	96	48	4
TAP	22	48	6
STR	22	96	4
SI_	22	96	4	96	48	0
TAP	22	144	6
STR	22	192	0
SI_	22	192	0	96	48	4
TAP	22	240	6
TAP	22	288	4
TAP	22	336	6
TAP	23	0	0
TAP	23	48	6
TAP	23	96	4
TAP	23	96	5
TAP	23	144	6
TAP	23	192	0
TAP	23	216	7
TAP	23	240	1
TAP	23	288	3
TAP	23	312	4
TAP	23	336	2
TAP	24	0	7
TAP	24	48	1
TAP	24	96	2
TAP	24	96	3
TAP	24	144	1
HLD	24	192	0	24
HLD	24	192	6	24
HLD	24	240	2	24
HLD	24	240	4	24
HLD	24	288	1	24
HLD	24	288	7	24
HLD	24	336	3	24
HLD	24	336	5	24
TAP	25	0	0
STR	25	0	1
SI_	25	0	1	96	48	5
TAP	25	48	0
HLD	25	48	1	144
HLD	25	192	6	192
TAP	25	288	2
HLD	26	0	4	192
TAP	26	96	0
HLD	26	192	2	96
TAP	26	288	1
STR	27	0	6
SI_	27	0	6	96	48	2
TAP	27	0	7
HLD	27	48	6	144
TAP	27	48	7
HLD	27	192	1	192
TAP	27	288	5
HLD	28	0	3	192
TAP	28	96	7
HLD	28	192	5	96
TAP	28	288	6
STR	29	0	0
SI_	29	0	0	96	48	4
TAP	29	0	1
HLD	29	48	0	144
TAP	29	48	7
HLD	29	192	5	192
TAP	29	288	1
HLD	30	0	3	192
TAP	30	96	7
HLD	30	192	1	96
TAP	30	288	2
TAP	31	0	6
STR	31	0	7
SI_	31	0	7	96	48	3
TAP	31	48	0
HLD	31	48	7	144
HLD	31	192	2	192
TAP	31	288	6
HLD	32	0	4	192
TAP	32	96	0
HLD	32	192	6	96
TAP	32	288	5
STR	33	0	4
SCL	33	0	4	96	48	1
TAP	33	0	5
HLD	33	96	6	96
STR	33	192	7
SCR	33	192	7	96	48	2
HLD	33	288	5	96
STR	34	0	4
SCL	34	0	4	96	48	1
HLD	34	96	7	96
STR	34	192	0
SCL	34	192	0	96	48	5
TAP	35	0	2
STR	35	0	3
SCR	35	0	3	96	48	6
HLD	35	96	1	96
STR	35	192	0
SCL	35	192	0	96	48	5
HLD	35	288	2	96
STR	36	0	3
SCR	36	0	3	96	48	6
HLD	36	96	0	96
STR	36	192	7
SCR	36	192	7	96	48	1
STR	37	0	0
SI_	37	0	0	96	48	4
TAP	37	0	2
TAP	37	96	0
STR	37	96	7
SLL	37	96	7	96	48	2
TAP	37	192	5
TAP	37	192	7
TAP	37	288	6
TAP	37	336	6
TAP	38	0	5
STR	38	0	7
SI_	38	0	7	96	48	3
STR	38	96	0
SLR	38	96	0	96	48	5
TAP	38	96	7
TAP	38	192	0
TAP	38	192	2
TAP	38	288	1
TAP	38	336	1
TAP	39	0	0
STR	39	0	2
SCR	39	0	2	96	48	5
TAP	39	48	2
TAP	39	96	7
TAP	39	144	7
STR	39	192	6
SUL	39	192	6	96	48	2
TAP	39	240	6
TAP	39	288	7
TAP	39	336	7
STR	40	0	1
SI_	40	0	1	96	48	4
TAP	40	48	1
TAP	40	96	1
STR	40	96	7
SI_	40	96	7	96	48	3
TAP	40	144	7
STR	40	192	0
SF_	40	192	0	96	48	4
TAP	40	192	7
BRK	40	288	0
STR	41	0	1
SCL	41	0	1	96	48	6
TAP	41	48	2
TAP	41	96	3
TAP	41	144	4
STR	41	192	5
SCL	41	192	5	96	48	2
TAP	41	240	6
TAP	41	288	7
TAP	41	336	0
TAP	42	0	1
TAP	42	48	3
TAP	42	96	4
TAP	42	144	6
TAP	42	192	0
STR	42	192	4
SCR	42	192	4	96	48	7
TAP	42	216	1
TAP	42	240	2
TAP	42	264	3
TAP	42	288	4
TAP	43	0	6
TAP	43	48	4
TAP	43	96	3
TAP	43	144	1
STR	43	192	3
SCL	43	192	3	96	48	0
TAP	43	192	7
TAP	43	216	6
TAP	43	240	5
TAP	43	264	4
TAP	43	288	3
TAP	44	0	6
TAP	44	0	7
TAP	44	48	5
TAP	44	96	3
TAP	44	96	4
TAP	44	144	2
TAP	44	192	0
TAP	44	192	1
TAP	44	240	2
TAP	44	288	3
TAP	44	288	4
TAP	44	336	5
TAP	45	0	0
TAP	45	0	6
TAP	45	48	5
TAP	45	96	3
TAP	45	96	4
TAP	45	144	2
STR	45	192	1
SI_	45	192	1	96	48	4
STR	45	192	7
SI_	45	192	7	96	48	4
TAP	46	0	6
TAP	46	48	4
TAP	46	96	3
TAP	46	144	1
STR	46	192	3
SCL	46	192	3	96	48	0
TAP	46	192	7
TAP	46	216	6
TAP	46	240	5
TAP	46	264	4
TAP	46	288	3
TAP	47	0	1
TAP	47	48	3
TAP	47	96	4
TAP	47	144	6
TAP	47	192	0
STR	47	192	4
SCR	47	192	4	96	48	7
TAP	47	216	1
TAP	47	240	2
TAP	47	264	3
TAP	47	288	4
TAP	48	0	0
TAP	48	0	1
TAP	48	48	2
TAP	48	96	3
TAP	48	96	4
TAP	48	144	5
TAP	48	192	6
TAP	48	192	7
TAP	48	240	5
TAP	48	288	3
TAP	48	288	4
TAP	48	336	2
TAP	49	0	1
TAP	49	0	7
TAP	49	48	2
TAP	49	96	3
TAP	49	96	4
TAP	49	144	5
STR	49	192	0
SI_	49	192	0	96	48	3
STR	49	192	6
SI_	49	192	6	96	48	3
TAP	50	0	2
TAP	50	24	4
TAP	50	48	2
TAP	50	72	5
TAP	50	96	2
TAP	50	120	6
TAP	50	144	2
TAP	50	168	7
TAP	50	192	2
TAP	50	216	0
TAP	50	240	2
TAP	50	264	1
TAP	50	288	2
TAP	50	312	3
TAP	50	336	2
TAP	50	360	4
TAP	51	0	2
TAP	51	24	5
TAP	51	48	1
TAP	51	72	5
TAP	51	96	0
TAP	51	120	5
TAP	51	144	7
TAP	51	168	5
TAP	51	192	6
TAP	51	216	5
TAP	51	240	4
TAP	51	264	5
TAP	51	288	3
TAP	51	312	5
TAP	51	336	2
TAP	51	360	5
STR	52	0	2
SI_	52	0	2	96	48	6
TAP	52	48	2
STR	52	96	3
SI_	52	96	3	96	48	5
TAP	52	144	3
STR	52	192	1
SI_	52	192	1	96	48	7
TAP	52	240	1
TAP	52	288	6
TAP	52	336	6
TAP	53	0	4
STR	53	48	4
SI_	53	48	4	96	48	0
TAP	53	144	7
STR	53	192	7
SI_	53	192	7	96	48	3
TAP	53	288	0
TAP	53	288	7
TAP	54	0	5
TAP	54	24	3
TAP	54	48	5
TAP	54	72	2
TAP	54	96	5
TAP	54	120	1
TAP	54	144	5
TAP	54	168	0
TAP	54	192	5
TAP	54	216	7
TAP	54	240	5
TAP	54	264	6
TAP	54	288	5
TAP	54	312	4
TAP	54	336	5
TAP	54	360	3
TAP	55	0	5
TAP	55	24	2
TAP	55	48	6
TAP	55	72	2
TAP	55	96	7
TAP	55	120	2
TAP	55	144	0
TAP	55	168	2
TAP	55	192	1
TAP	55	216	2
TAP	55	240	3
TAP	55	264	2
TAP	55	288	4
TAP	55	312	2
TAP	55	336	5
TAP	55	360	2
STR	56	0	5
SI_	56	0	5	96	48	1
TAP	56	48	5
STR	56	96	4
SI_	56	96	4	96	48	2
TAP	56	144	4
STR	56	192	6
SI_	56	192	6	96	48	0
TAP	56	240	6
TAP	56	288	1
TAP	56	336	1
STR	57	0	2
SI_	57	0	2	96	48	6
STR	57	0	6
SI_	57	0	6	96	48	2
STR	57	96	2
SCL	57	96	2	96	144	4
TAP	57	96	6
HLD	58	0	2	288
BST	58	0	3
SCR	58	0	3	96	1344	3
HLD	59	0	4	288
HLD	60	0	6	288
HLD	61	0	0	288
STR	62	0	6
SCL	62	0	6	96	384	2
TAP	62	192	2
STR	63	0	2
SSL	63	0	2	96	384	6
TAP	63	192	6
STR	64	0	6
SCR	64	0	6	96	384	2
TAP	64	192	2
STR	65	0	2
SXL	65	0	2	96	384	0
TAP	65	192	0
STR	66	0	0
SF_	66	0	0	96	192	4
BRK	67	0	0
HLD	67	0	6	288
HLD	67	192	4	288
HLD	68	0	2	288
HLD	68	192	0	288
HLD	69	0	6	288
HLD	69	192	4	288
HLD	70	0	2	192
TAP	70	192	0
STR	71	0	3
SI_	71	0	3	96	48	7
STR	71	0	7
SI_	71	0	7	96	48	3
BRK	71	192	1
BRK	71	192	5
STR	72	0	1
SI_	72	0	1	96	48	5
STR	72	0	5
SI_	72	0	5	96	48	1
BRK	72	192	3
BRK	72	192	7
STR	73	0	0
SI_	73	0	0	96	48	4
STR	73	0	4
SI_	73	0	4	96	48	0
BRK	73	192	2
BRK	73	192	6
STR	74	0	0
SCR	74	0	0	96	192	7
TAP	74	0	7
STR	75	0	0
SI_	75	0	0	96	48	4
TAP	75	0	1
TAP	75	96	0
TAP	75	96	7
STR	75	192	7
SI_	75	192	7	96	48	3
TAP	75	240	6
TAP	75	288	5
TAP	75	288	7
TAP	76	0	6
STR	76	0	7
SI_	76	0	7	96	48	3
TAP	76	96	0
TAP	76	96	7
STR	76	192	0
SI_	76	192	0	96	48	4
TAP	76	240	1
TAP	76	288	0
TAP	76	288	2
STR	77	0	0
SI_	77	0	0	96	48	4
TAP	77	0	1
TAP	77	96	0
TAP	77	96	6
TAP	77	192	1
STR	77	192	7
SI_	77	192	7	96	48	3
TAP	77	240	6
TAP	77	288	5
TAP	77	288	7
TAP	78	0	6
STR	78	0	7
SI_	78	0	7	96	48	3
TAP	78	96	1
TAP	78	96	7
TAP	78	192	0
TAP	78	192	6
TAP	78	240	1
TAP	78	288	2
TAP	78	288	5
STR	79	0	0
SI_	79	0	0	96	48	4
TAP	79	48	0
STR	79	96	1
SI_	79	96	1	96	48	5
TAP	79	144	1
STR	79	192	2
SI_	79	192	2	96	48	6
TAP	79	240	2
STR	79	288	3
SI_	79	288	3	96	48	7
TAP	79	336	3
STR	80	0	4
SI_	80	0	4	96	48	0
TAP	80	48	4
STR	80	96	5
SI_	80	96	5	96	48	1
TAP	80	144	5
STR	80	192	6
SI_	80	192	6	96	48	2
TAP	80	240	6
STR	80	288	7
SI_	80	288	7	96	48	3
TAP	80	336	7
STR	81	0	0
SI_	81	0	0	96	48	4
TAP	81	48	0
TAP	81	96	0
STR	81	96	5
SI_	81	96	5	96	48	0
TAP	81	144	5
STR	81	192	2
SI_	81	192	2	96	48	7
TAP	81	192	5
TAP	81	240	2
TAP	81	288	2
TAP	81	288	6
TAP	81	336	6
STR	82	0	1
SXR	82	0	1	96	96	3
STR	82	0	6
SXL	82	0	6	96	96	4
STR	82	288	0
SI_	82	288	0	96	48	4
TAP	82	288	7
STR	83	0	0
SI_	83	0	0	96	24	6
STR	83	0	4
SI_	83	0	4	96	24	2
TAP	83	192	5
TAP	83	216	4
TAP	83	240	5
TAP	83	288	6
STR	83	288	7
SI_	83	288	7	96	48	3
TAP	83	336	0
STR	84	0	3
SI_	84	0	3	96	24	5
STR	84	0	7
SI_	84	0	7	96	24	1
TAP	84	192	2
TAP	84	216	3
TAP	84	240	2
STR	84	288	0
SI_	84	288	0	96	48	4
TAP	84	288	1
TAP	84	336	7
STR	85	0	0
SI_	85	0	0	96	24	6
STR	85	0	4
SI_	85	0	4	96	24	2
TAP	85	192	5
TAP	85	216	4
TAP	85	240	5
TAP	85	288	6
STR	85	288	7
SI_	85	288	7	96	48	3
TAP	85	336	0
STR	86	0	3
SI_	86	0	3	96	24	5
STR	86	0	7
SI_	86	0	7	96	24	1
TAP	86	192	2
TAP	86	216	3
TAP	86	240	2
STR	86	288	0
SLL	86	288	0	96	120	2
TAP	86	288	1
TAP	86	336	7
TAP	87	0	0
STR	87	0	5
SI_	87	0	5	96	24	3
TAP	87	192	5
TAP	87	216	4
TAP	87	240	5
TAP	87	288	6
STR	87	288	7
SLR	87	288	7	96	120	5
TAP	87	336	0
STR	88	0	2
SI_	88	0	2	96	24	4
TAP	88	0	7
TAP	88	192	2
TAP	88	216	3
TAP	88	240	2
TAP	88	288	0
TAP	88	288	1
TAP	88	336	7
STR	89	0	2
SI_	89	0	2	96	24	7
STR	89	0	6
SI_	89	0	6	96	24	3
TAP	89	72	2
TAP	89	72	6
TAP	89	192	0
TAP	89	192	4
TAP	89	216	1
TAP	89	216	5
TAP	89	240	2
TAP	89	240	6
TAP	89	288	0
TAP	89	288	4
TAP	89	336	3
TAP	89	336	7
STR	90	0	2
SI_	90	0	2	96	24	5
STR	90	0	6
SI_	90	0	6	96	24	1
TAP	90	72	2
TAP	90	72	6
TAP	90	192	0
TAP	90	216	7
TAP	90	240	6
TAP	90	264	5
TAP	90	288	4
TAP	90	312	3
TAP	90	336	2
TAP	90	360	1
TAP	91	0	0
TAP	91	0	7
BRK	91	96	1
BRK	91	96	6
TAP	91	192	2
TAP	91	216	3
TAP	91	240	2
TAP	91	264	3
TAP	91	288	1
TAP	91	336	0
TAP	91	336	6
TAP	92	0	5
TAP	92	24	4
TAP	92	48	5
TAP	92	72	4
TAP	92	96	6
TAP	92	144	1
TAP	92	144	7
TAP	92	192	1
TAP	92	216	3
TAP	92	240	2
TAP	92	288	6
TAP	92	312	4
TAP	92	336	5
HLD	93	0	1	48
TAP	93	0	7
TAP	93	48	3
TAP	93	72	2
TAP	93	96	4
TAP	93	120	3
TAP	93	144	5
TAP	93	168	4
HLD	93	192	5	48
TAP	93	264	7
TAP	93	288	6
TAP	93	312	0
TAP	93	336	7
TAP	93	360	1
STR	94	0	0
SI_	94	0	0	96	48	4
STR	94	48	3
SI_	94	48	3	96	48	7
TAP	94	96	0
TAP	94	144	3
STR	94	192	6
SCL	94	192	6	96	48	3
SCR	94	192	6	96	48	1
TAP	95	0	2
TAP	95	24	3
TAP	95	48	2
TAP	95	96	5
TAP	95	120	4
TAP	95	144	5
TAP	95	192	1
TAP	95	216	3
TAP	95	240	1
TAP	95	288	6
TAP	95	312	4
TAP	95	336	6
TAP	96	0	1
TAP	96	24	3
TAP	96	48	2
TAP	96	96	6
TAP	96	120	4
TAP	96	144	5
TAP	96	192	0
TAP	96	216	3
TAP	96	240	2
TAP	96	288	7
TAP	96	312	4
TAP	96	336	5
TAP	97	0	1
TAP	97	24	0
TAP	97	48	1
TAP	97	96	2
TAP	97	96	7
TAP	97	144	6
TAP	97	168	7
TAP	97	192	6
TAP	97	240	0
TAP	97	240	5
TAP	97	288	6
TAP	97	312	1
TAP	97	336	5
TAP	97	360	2
TAP	98	0	3
STR	98	0	4
SCR	98	0	4	96	144	3
BRK	98	288	1
BRK	98	288	6
TAP	99	0	2
TAP	99	24	3
TAP	99	48	5
TAP	99	72	4
TAP	99	96	2
TAP	99	120	3
TAP	99	144	5
TAP	99	168	4
TAP	99	192	1
TAP	99	216	2
TAP	99	240	6
TAP	99	264	5
TAP	99	288	1
TAP	99	312	2
TAP	99	336	6
TAP	99	360	5
TAP	100	0	1
TAP	100	24	2
TAP	100	48	3
TAP	100	72	4
TAP	100	96	5
TAP	100	120	4
TAP	100	144	3
TAP	100	168	2
TAP	100	192	3
TAP	100	216	4
TAP	100	240	5
TAP	100	264	6
TAP	100	288	5
TAP	100	312	4
TAP	100	336	3
TAP	100	360	2
TAP	101	0	0
TAP	101	24	1
TAP	101	48	7
TAP	101	72	6
TAP	101	96	0
TAP	101	120	1
TAP	101	144	7
TAP	101	168	6
TAP	101	192	1
TAP	101	216	2
TAP	101	240	6
TAP	101	264	5
TAP	101	288	1
TAP	101	312	2
TAP	101	336	6
TAP	101	360	5
TAP	102	0	3
TAP	102	0	4
TAP	102	48	3
TAP	102	48	4
TAP	102	96	0
TAP	102	96	7
TAP	102	144	0
TAP	102	144	7
TAP	102	192	3
TAP	102	216	4
TAP	102	240	2
TAP	102	264	5
TAP	102	288	1
TAP	102	312	6
TAP	102	336	0
TAP	102	360	7
TAP	103	0	1
TAP	103	24	6
TAP	103	48	1
TAP	103	72	6
TAP	103	96	1
TAP	103	120	6
TAP	103	144	1
TAP	103	168	6
TAP	103	192	1
TAP	103	192	7
TAP	103	216	2
TAP	103	240	3
TAP	103	264	4
TAP	103	288	0
TAP	103	288	5
TAP	103	312	4
TAP	103	336	3
TAP	103	360	2
TAP	104	0	1
TAP	104	0	7
TAP	104	24	2
TAP	104	48	3
TAP	104	72	4
TAP	104	96	0
TAP	104	96	5
TAP	104	120	4
TAP	104	144	3
TAP	104	168	2
TAP	104	192	1
TAP	104	192	6
TAP	104	216	5
TAP	104	240	4
TAP	104	264	3
TAP	104	288	2
TAP	104	288	7
TAP	104	312	3
TAP	104	336	4
TAP	104	360	5
TAP	105	0	0
TAP	105	0	6
TAP	105	24	5
TAP	105	48	4
TAP	105	72	3
TAP	105	96	2
TAP	105	96	7
TAP	105	120	3
TAP	105	144	4
TAP	105	168	5
BRK	105	192	0
TAP	105	216	7
BRK	105	240	0
TAP	105	264	6
BRK	105	288	0
TAP	105	312	5
BRK	105	336	0
TAP	105	360	4
BRK	106	0	0
TAP	106	24	4
BRK	106	48	0
TAP	106	72	5
BRK	106	96	0
TAP	106	120	6
BRK	106	144	0
TAP	106	168	7
HLD	106	192	0	48
TAP	106	240	7
TAP	106	264	1
TAP	106	288	7
TAP	106	312	2
TAP	106	336	7
TAP	106	360	3
HLD	107	0	7	48
TAP	107	48	2
TAP	107	72	6
TAP	107	96	2
TAP	107	120	5
TAP	107	144	2
TAP	107	168	4
STR	107	192	2
SCL	107	192	2	96	96	7
STR	107	288	7
SCL	107	288	7	96	96	3
STR	108	0	3
SCL	108	0	3	96	96	7
STR	108	96	7
SCL	108	96	7	96	96	4
STR	108	192	4
SCL	108	192	4	96	96	7
STR	108	288	7
SCL	108	288	7	96	96	5
STR	109	0	5
SF_	109	0	5	96	48	1
STR	109	192	5
SCR	109	192	5	96	96	0
STR	109	288	0
SCR	109	288	0	96	96	4
STR	110	0	4
SCR	110	0	4	96	96	0
STR	110	96	0
SCR	110	96	0	96	96	3
STR	110	192	3
SCR	110	192	3	96	96	0
STR	110	288	0
SCR	110	288	0	96	96	2
STR	111	0	2
SF_	111	0	2	96	48	6
STR	111	192	2
SI_	111	192	2	96	32	6
STR	111	288	3
SI_	111	288	3	96	32	7
STR	112	0	4
SI_	112	0	4	96	32	0
STR	112	96	5
SI_	112	96	5	96	32	1
STR	112	192	2
SUR	112	192	2	96	32	6
STR	112	288	3
SUR	112	288	3	96	32	7
STR	113	0	4
SUL	113	0	4	96	32	0
TAP	113	96	5
STR	113	192	3
SI_	113	192	3	96	48	7
STR	113	192	4
SI_	113	192	4	96	48	0
TAP	113	240	2
TAP	113	240	5
TAP	113	288	3
TAP	113	288	4
STR	114	0	2
SI_	114	0	2	96	48	7
STR	114	0	5
SI_	114	0	5	96	48	0
TAP	114	48	3
TAP	114	48	4
TAP	114	96	2
TAP	114	96	5
TAP	114	192	2
TAP	114	204	3
TAP	114	216	4
TAP	114	228	5
TAP	114	240	6
TAP	114	252	7
TAP	114	264	0
TAP	114	276	1
TAP	114	288	2
TAP	114	300	3
TAP	114	312	4
TAP	114	324	5
TAP	114	336	6
TAP	114	348	7
TAP	114	360	0
TAP	114	372	1
TAP	115	0	2
TAP	115	12	3
TAP	115	24	4
TAP	115	36	5
TAP	115	48	6
TAP	115	60	7
TAP	115	72	0
TAP	115	84	1
TAP	115	96	2
TAP	115	108	3
TAP	115	120	4
TAP	115	132	5
TAP	115	144	6
TAP	115	156	7
TAP	115	168	0
TAP	115	180	1
HLD	115	192	2	84
HLD	115	192	6	84
BRK	115	288	1
BRK	115	288	5
BRK	115	300	0
BRK	115	300	4
BRK	115	312	3
BRK	115	312	7
TAP	116	0	5
TAP	116	24	7
TAP	116	48	5
TAP	116	96	0
TAP	116	96	6
TAP	116	144	1
TAP	116	168	7
TAP	116	192	1
TAP	116	240	0
TAP	116	240	6
TAP	116	288	4
TAP	116	312	2
TAP	116	336	4
TAP	116	360	2
TAP	117	0	7
TAP	117	32	7
TAP	117	64	7
TAP	117	96	5
TAP	117	128	5
TAP	117	160	5
TAP	117	192	3
TAP	117	224	3
TAP	117	256	3
TAP	117	288	1
TAP	117	320	1
TAP	117	352	1
TAP	118	0	7
TAP	118	32	4
TAP	118	64	5
TAP	118	96	0
TAP	118	128	3
TAP	118	160	2
TAP	118	192	7
TAP	118	204	6
TAP	118	216	5
TAP	118	228	4
TAP	118	240	3
TAP	118	252	2
TAP	118	264	1
TAP	118	276	0
TAP	118	288	7
TAP	118	300	6
TAP	118	312	5
TAP	118	324	4
TAP	118	336	3
TAP	118	348	2
TAP	118	360	1
TAP	118	372	0
BST	119	0	7
SI_	119	0	7	96	24	3
SSR	119	0	7	96	24	3
BRK	119	72	7
BST	119	240	0
SI_	119	240	0	96	24	4
SSL	119	240	0	96	24	4
BRK	119	312	0
BST	120	96	0
SSL	120	96	0	96	24	4
BST	120	96	7
SSR	120	96	7	96	24	3
BST	120	168	0
SCR	120	168	0	96	408	7
BST	120	168	7
SCL	120	168	7	96	408	0
BRK	122	0	0
BRK	122	0	7
BRK	122	6	1
BRK	122	6	6
BRK	122	12	2
BRK	122	12	5
BRK	122	18	3
BRK	122	18	4

T_REC_TAP	783
T_REC_BRK	38
T_REC_XTP	0
T_REC_HLD	55
T_REC_XHO	0
T_REC_STR	145
T_REC_BST	9
T_REC_XST	0
T_REC_TTP	0
T_REC_THO	0
T_REC_SLD	158
T_REC_ALL	1188
T_NUM_TAP	928
T_NUM_BRK	47
T_NUM_HLD	55
T_NUM_SLD	158
T_NUM_ALL	1188
T_JUDGE_TAP	975
T_JUDGE_HLD	159
T_JUDGE_SLD	158
T_JUDGE_ALL	1292
TTM_EACHPAIRS	168
TTM_SCR_TAP	464000
TTM_SCR_BRK	122200
TTM_SCR_HLD	55000
TTM_SCR_SLD	237000
TTM_SCR_ALL	878200
TTM_SCR_S	847300
TTM_SCR_SS	873500
TTM_RAT_ACV	10053

