VERSION	0.00.00	1.03.00
FES_MODE	0
BPM_DEF	200.000	200.000	200.000	200.000
MET_DEF	4	4
RESOLUTION	384
CLK_DEF	384
COMPATIBLE_CODE	MA2

BPM	0	0	200.000
MET	0	0	4	4
MET	103	0	4	2
MET	103	192	4	4
MET	115	192	4	2
MET	116	0	4	4

HLD	1	0	6	144
HLD	1	144	4	96
HLD	1	240	3	144
HLD	2	0	1	144
HLD	2	144	3	96
HLD	2	240	4	144
HLD	3	0	6	144
HLD	3	144	4	96
HLD	3	240	3	144
HLD	4	0	1	96
TAP	4	96	0
STR	4	144	6
SI_	4	144	6	96	48	2
TAP	4	144	7
TAP	4	240	1
HLD	5	0	2	96
TAP	5	96	3
HLD	5	144	5	96
TAP	5	240	4
TAP	5	288	3
TAP	5	336	2
TAP	5	336	5
TAP	6	0	2
TAP	6	0	5
TAP	6	96	6
TAP	6	144	3
TAP	6	144	5
TAP	6	192	1
TAP	6	240	2
TAP	6	240	4
TAP	6	288	3
TAP	6	288	5
HLD	7	0	1	96
TAP	7	96	0
HLD	7	144	6	96
TAP	7	240	7
TAP	7	288	0
TAP	7	336	1
TAP	7	336	6
STR	8	0	1
SSR	8	0	1	96	192	5
STR	8	0	6
SSL	8	0	6	96	192	2
STR	9	0	3
SCL	9	0	3	96	240	4
STR	9	0	4
SUL	9	0	4	96	240	3
STR	10	0	3
SUR	10	0	3	96	240	4
STR	10	0	4
SCR	10	0	4	96	240	3
TAP	11	0	5
TAP	11	48	4
TAP	11	96	3
TAP	11	96	6
TAP	11	192	0
TAP	11	240	0
TAP	11	288	7
TAP	11	336	7
TAP	12	0	2
TAP	12	48	3
TAP	12	96	1
TAP	12	96	4
TAP	12	192	7
TAP	12	240	7
TAP	12	288	0
TAP	12	336	0
STR	13	0	1
SLR	13	0	1	96	192	0
STR	13	0	5
SLR	13	0	5	96	192	4
STR	14	0	0
SI_	14	0	0	96	48	3
STR	14	0	4
SI_	14	0	4	96	48	7
STR	14	192	3
SI_	14	192	3	96	48	0
STR	14	192	7
SI_	14	192	7	96	48	4
TAP	15	0	1
TAP	15	48	0
TAP	15	96	2
TAP	15	96	7
TAP	15	192	4
TAP	15	240	4
TAP	15	288	3
TAP	15	336	3
TAP	16	0	6
TAP	16	48	7
TAP	16	96	0
TAP	16	96	5
TAP	16	192	3
TAP	16	192	4
TAP	16	240	3
TAP	16	240	4
TAP	16	288	1
TAP	16	288	6
TAP	16	336	1
TAP	16	336	6
TAP	17	0	2
TAP	17	48	3
TAP	17	96	2
TAP	17	144	1
TAP	17	144	4
TAP	17	192	5
TAP	17	240	4
TAP	17	288	5
TAP	17	336	3
TAP	17	336	6
TAP	18	0	7
TAP	18	48	0
TAP	18	96	7
TAP	18	144	1
TAP	18	144	6
TAP	18	192	2
TAP	18	240	3
TAP	18	288	4
TAP	18	336	2
TAP	18	336	5
TAP	19	0	1
TAP	19	0	6
TAP	19	48	1
TAP	19	48	6
TAP	19	96	1
TAP	19	96	6
TAP	19	192	2
TAP	19	240	2
TAP	19	288	2
TAP	19	336	1
TAP	19	336	3
TAP	20	0	0
TAP	20	0	4
TAP	20	48	0
TAP	20	48	4
TAP	20	96	0
TAP	20	96	4
TAP	20	192	7
TAP	20	240	7
TAP	20	288	7
TAP	20	336	0
TAP	20	336	6
TAP	21	0	5
TAP	21	48	4
TAP	21	96	5
TAP	21	144	3
TAP	21	144	6
TAP	21	192	2
TAP	21	240	3
TAP	21	288	2
TAP	21	336	1
TAP	21	336	4
TAP	22	0	0
TAP	22	48	7
TAP	22	96	0
TAP	22	144	1
TAP	22	144	6
TAP	22	192	5
TAP	22	240	4
TAP	22	288	3
TAP	22	336	2
TAP	22	336	5
TAP	23	0	1
TAP	23	0	6
TAP	23	48	1
TAP	23	48	6
TAP	23	96	1
TAP	23	96	6
TAP	23	192	5
TAP	23	240	5
TAP	23	288	5
TAP	23	336	4
TAP	23	336	6
TAP	24	0	3
TAP	24	0	7
TAP	24	48	3
TAP	24	48	7
STR	24	96	3
SXR	24	96	3	96	144	3
STR	24	96	7
SXR	24	96	7	96	144	7
TAP	25	0	3
TAP	25	0	7
TAP	25	48	0
HLD	25	48	4	624
HLD	25	192	7	96
HLD	26	0	6	96
HLD	26	192	5	96
TAP	27	0	0
TAP	27	0	4
HLD	27	48	3	624
TAP	27	48	7
HLD	27	192	0	96
HLD	28	0	1	96
HLD	28	192	2	96
TAP	29	0	3
TAP	29	0	7
TAP	29	48	0
HLD	29	48	4	624
HLD	29	192	1	96
HLD	30	0	2	96
HLD	30	192	3	96
TAP	31	0	0
TAP	31	0	4
HLD	31	48	3	624
TAP	31	48	7
HLD	31	192	6	96
HLD	32	0	5	96
HLD	32	192	4	96
TAP	33	0	0
HLD	33	48	1	192
TAP	33	144	0
TAP	33	192	7
HLD	33	240	6	192
TAP	33	336	7
TAP	34	0	0
HLD	34	48	1	96
TAP	34	144	0
STR	34	192	1
SI_	34	192	1	96	48	5
TAP	34	288	6
TAP	35	0	7
HLD	35	48	6	192
TAP	35	144	7
TAP	35	192	0
HLD	35	240	1	192
TAP	35	336	0
TAP	36	0	7
HLD	36	48	6	96
TAP	36	144	7
STR	36	192	6
SI_	36	192	6	96	48	2
TAP	36	288	1
HLD	37	0	0	192
TAP	37	96	1
HLD	37	192	2	192
TAP	37	288	3
HLD	38	0	4	192
TAP	38	96	5
HLD	38	192	6	192
TAP	38	288	7
TAP	39	0	0
TAP	39	48	0
TAP	39	96	6
TAP	39	144	6
TAP	39	192	2
TAP	39	240	2
TAP	39	288	4
TAP	39	336	4
TAP	40	0	3
TAP	40	48	3
TAP	40	96	2
TAP	40	96	4
TAP	40	144	2
TAP	40	144	4
TAP	40	192	1
TAP	40	192	5
TAP	40	240	1
TAP	40	240	5
TAP	40	288	0
TAP	40	288	6
TAP	40	336	0
TAP	40	336	6
TAP	41	0	7
TAP	41	48	7
TAP	41	96	7
TAP	41	144	7
TAP	41	192	0
TAP	41	192	6
TAP	41	240	1
TAP	41	240	5
TAP	41	288	2
STR	41	288	4
SXL	41	288	4	96	336	7
TAP	41	336	3
STR	43	0	3
SUL	43	0	3	96	240	0
TAP	44	0	6
TAP	44	48	7
TAP	44	96	0
TAP	44	96	5
TAP	44	192	1
TAP	44	240	0
TAP	44	288	2
TAP	44	288	7
TAP	44	336	2
TAP	44	336	7
TAP	45	0	6
TAP	45	48	5
TAP	45	96	4
TAP	45	144	3
TAP	45	192	2
TAP	45	240	1
STR	45	288	0
SXL	45	288	0	96	336	3
TAP	45	288	7
STR	47	0	7
SUL	47	0	7	96	240	4
STR	47	192	0
SI_	47	192	0	96	48	3
TAP	48	0	2
TAP	48	48	3
TAP	48	96	1
TAP	48	96	4
TAP	48	192	5
TAP	48	240	4
TAP	48	288	3
TAP	48	288	6
TAP	48	336	3
TAP	48	336	6
TAP	49	0	2
TAP	49	48	1
TAP	49	96	0
TAP	49	144	7
TAP	49	192	6
TAP	49	240	5
TAP	49	288	3
TAP	49	288	4
TAP	49	336	3
TAP	49	336	4
STR	50	0	2
SCR	50	0	2	96	48	5
STR	50	96	6
SCR	50	96	6	96	48	0
STR	50	192	1
SCR	50	192	1	96	48	4
STR	50	288	5
SCR	50	288	5	96	48	7
STR	51	0	0
SCR	51	0	0	96	48	3
STR	51	96	4
SCR	51	96	4	96	48	6
STR	51	192	7
SCR	51	192	7	96	48	2
TAP	51	288	4
TAP	52	0	6
TAP	52	48	6
TAP	52	96	5
TAP	52	96	7
TAP	52	192	1
TAP	52	240	2
TAP	52	288	3
TAP	52	336	4
TAP	52	336	5
TAP	53	0	6
TAP	53	48	6
TAP	53	96	5
TAP	53	96	7
TAP	53	192	3
TAP	53	192	4
TAP	53	288	0
TAP	53	288	7
TAP	53	336	0
TAP	53	336	7
STR	54	0	6
SCR	54	0	6	96	48	1
STR	54	96	2
SCR	54	96	2	96	48	4
STR	54	192	5
SCR	54	192	5	96	48	0
STR	54	288	1
SCR	54	288	1	96	48	3
STR	55	0	4
SCR	55	0	4	96	48	7
STR	55	96	0
SCR	55	96	0	96	48	2
STR	55	192	3
SCR	55	192	3	96	48	6
TAP	55	288	0
TAP	56	0	2
TAP	56	48	2
TAP	56	96	1
TAP	56	96	3
TAP	56	192	5
TAP	56	240	6
TAP	56	288	7
TAP	56	336	0
TAP	56	336	1
TAP	57	0	2
TAP	57	48	2
TAP	57	96	1
TAP	57	96	3
STR	57	192	0
SI_	57	192	0	96	48	4
TAP	57	192	7
HLD	58	0	5	384
HLD	59	0	6	384
HLD	60	0	7	384
HLD	61	0	0	384
HLD	62	0	1	384
HLD	63	0	2	384
HLD	64	0	3	384
STR	65	0	4
SCR	65	0	4	96	576	3
HLD	67	0	7	192
HLD	67	192	5	192
HLD	68	0	3	192
HLD	68	192	1	192
HLD	69	0	7	192
HLD	69	192	0	192
HLD	70	0	2	192
HLD	70	192	4	192
STR	71	0	6
SSL	71	0	6	96	144	2
BRK	71	192	6
STR	72	0	1
SSR	72	0	1	96	144	5
BRK	72	192	1
STR	73	0	7
SSR	73	0	7	96	144	3
BRK	73	192	7
HLD	74	0	3	288
HLD	74	0	4	288
HLD	75	0	2	192
TAP	75	0	5
TAP	75	96	3
HLD	75	192	4	192
TAP	75	288	3
HLD	76	0	2	192
TAP	76	96	3
HLD	76	192	5	192
TAP	76	288	4
HLD	77	0	3	192
TAP	77	96	4
HLD	77	192	6	192
TAP	77	288	5
HLD	78	0	4	192
TAP	78	96	5
HLD	78	192	6	192
TAP	78	288	7
HLD	79	0	0	192
TAP	79	96	7
HLD	79	192	6	192
TAP	79	288	7
HLD	80	0	1	192
TAP	80	96	0
HLD	80	192	7	192
TAP	80	288	0
STR	81	0	1
SI_	81	0	1	96	48	3
STR	81	96	7
SI_	81	96	7	96	48	5
STR	81	192	0
SI_	81	192	0	96	48	4
STR	81	288	7
SV_	81	288	7	96	48	6
STR	82	0	0
SV_	82	0	0	96	48	1
STR	82	96	5
SV_	82	96	5	96	48	4
STR	82	192	2
SV_	82	192	2	96	48	3
TAP	83	0	5
TAP	83	24	4
TAP	83	48	5
TAP	83	72	4
TAP	83	96	5
TAP	83	240	2
TAP	83	288	2
TAP	83	336	2
STR	84	0	1
SI_	84	0	1	96	48	4
HLD	84	0	3	72
TAP	84	240	6
TAP	84	288	5
TAP	84	336	4
TAP	85	0	2
TAP	85	24	3
TAP	85	48	2
TAP	85	72	3
TAP	85	96	2
TAP	85	240	5
TAP	85	288	5
TAP	85	336	5
HLD	86	0	4	72
STR	86	0	6
SI_	86	0	6	96	48	3
TAP	86	240	3
TAP	86	288	2
TAP	86	336	1
TAP	87	0	7
TAP	87	24	0
TAP	87	48	7
TAP	87	72	0
TAP	87	96	7
TAP	87	240	4
TAP	87	288	3
TAP	87	336	4
STR	88	0	2
SCR	88	0	2	96	48	5
HLD	88	0	5	72
STR	89	0	3
SI_	89	0	3	96	48	7
STR	89	0	4
SI_	89	0	4	96	48	0
TAP	89	240	0
TAP	89	240	7
TAP	89	288	1
TAP	89	288	6
TAP	89	336	2
TAP	89	336	5
TAP	90	0	3
TAP	90	0	4
TAP	90	72	1
TAP	90	72	6
TAP	90	192	0
TAP	90	216	1
TAP	90	240	2
TAP	90	264	3
TAP	90	288	7
TAP	90	312	6
TAP	90	336	5
TAP	90	360	4
STR	91	0	0
SI_	91	0	0	96	48	4
BRK	91	96	0
TAP	91	192	5
TAP	91	240	4
TAP	91	240	6
TAP	91	288	7
TAP	91	336	0
TAP	91	336	6
TAP	92	0	5
TAP	92	48	4
TAP	92	48	6
TAP	92	96	2
TAP	92	144	1
TAP	92	144	3
TAP	92	192	0
TAP	92	240	1
TAP	92	240	7
TAP	92	288	2
TAP	92	336	1
TAP	92	336	3
TAP	93	0	0
TAP	93	48	2
TAP	93	72	3
TAP	93	96	2
TAP	93	120	3
TAP	93	144	2
TAP	93	168	3
TAP	93	192	1
TAP	93	240	5
TAP	93	264	4
TAP	93	288	5
TAP	93	312	4
TAP	93	336	5
TAP	93	360	4
TAP	94	0	6
TAP	94	48	7
TAP	94	96	0
TAP	94	144	1
TAP	94	192	2
TAP	94	192	3
TAP	94	240	3
TAP	94	240	4
TAP	94	288	4
TAP	94	288	5
STR	95	0	7
SI_	95	0	7	96	48	3
TAP	95	48	7
TAP	95	96	0
TAP	95	144	0
STR	95	192	1
SI_	95	192	1	96	48	5
TAP	95	240	1
TAP	95	288	7
TAP	95	336	7
STR	96	0	6
SI_	96	0	6	96	48	2
TAP	96	48	6
TAP	96	96	7
TAP	96	144	7
STR	96	192	0
SI_	96	192	0	96	48	4
TAP	96	240	0
TAP	96	288	7
TAP	96	336	7
HLD	97	0	6	192
TAP	97	48	7
TAP	97	96	0
TAP	97	144	1
HLD	97	192	2	192
TAP	97	240	3
TAP	97	288	4
TAP	97	336	5
STR	98	0	6
SI_	98	0	6	96	48	2
STR	98	96	1
SI_	98	96	1	96	48	5
STR	98	192	7
SI_	98	192	7	96	48	3
TAP	99	0	2
TAP	99	24	3
TAP	99	48	2
TAP	99	96	2
TAP	99	120	4
TAP	99	144	2
TAP	99	192	2
TAP	99	216	3
TAP	99	240	2
TAP	99	288	2
TAP	99	312	5
TAP	99	336	2
TAP	100	0	2
TAP	100	24	3
TAP	100	48	2
TAP	100	96	2
TAP	100	120	6
TAP	100	144	2
TAP	100	192	2
TAP	100	216	3
TAP	100	240	2
TAP	100	288	2
TAP	100	312	7
TAP	100	336	2
TAP	101	0	5
TAP	101	24	4
TAP	101	48	5
TAP	101	96	5
TAP	101	120	3
TAP	101	144	5
TAP	101	192	5
TAP	101	216	4
TAP	101	240	5
TAP	101	288	5
TAP	101	312	2
TAP	101	336	5
TAP	102	0	5
TAP	102	24	4
TAP	102	48	5
TAP	102	96	5
TAP	102	120	1
TAP	102	144	5
TAP	102	192	5
TAP	102	216	4
TAP	102	240	5
TAP	102	288	5
TAP	102	312	0
TAP	102	336	5
TAP	103	192	1
TAP	103	216	0
TAP	103	240	1
TAP	103	288	6
TAP	103	312	7
TAP	103	336	6
TAP	104	0	1
TAP	104	24	0
TAP	104	48	1
TAP	104	96	6
TAP	104	120	7
TAP	104	144	6
TAP	104	192	2
TAP	104	216	0
TAP	104	240	2
TAP	104	288	5
TAP	104	312	7
TAP	104	336	5
TAP	105	0	2
TAP	105	24	0
TAP	105	48	2
TAP	105	96	5
TAP	105	120	7
TAP	105	144	5
TAP	105	192	0
TAP	105	216	7
TAP	105	240	0
TAP	105	264	7
TAP	105	288	0
TAP	105	312	7
TAP	105	336	0
TAP	105	360	7
TAP	106	0	0
TAP	106	24	7
TAP	106	48	0
TAP	106	72	7
TAP	106	96	0
TAP	106	120	7
TAP	106	144	0
TAP	106	168	7
TAP	106	240	6
TAP	106	264	4
TAP	106	288	6
TAP	106	312	4
TAP	106	336	6
TAP	106	360	4
TAP	107	48	1
TAP	107	72	3
TAP	107	96	1
TAP	107	120	3
TAP	107	144	1
TAP	107	168	3
STR	107	192	2
SI_	107	192	2	96	48	4
SI_	107	192	2	96	48	5
STR	108	0	2
SI_	108	0	2	96	48	5
SI_	108	0	2	96	48	6
STR	108	192	2
SI_	108	192	2	96	48	6
SI_	108	192	2	96	48	7
STR	109	0	2
SI_	109	0	2	96	48	0
SI_	109	0	2	96	48	7
STR	109	192	5
SI_	109	192	5	96	48	2
SI_	109	192	5	96	48	3
STR	110	0	5
SI_	110	0	5	96	48	1
SI_	110	0	5	96	48	2
STR	110	192	5
SI_	110	192	5	96	48	0
SI_	110	192	5	96	48	1
STR	111	0	5
SI_	111	0	5	96	48	0
SI_	111	0	5	96	48	7
STR	111	192	2
SI_	111	192	2	96	48	4
STR	111	288	6
SI_	111	288	6	96	48	0
STR	112	0	2
SI_	112	0	2	96	48	5
STR	112	96	6
SI_	112	96	6	96	48	1
STR	112	192	2
SI_	112	192	2	96	48	6
STR	112	288	5
SI_	112	288	5	96	48	3
STR	113	0	1
SI_	113	0	1	96	48	7
BRK	113	96	6
HLD	113	192	2	96
TAP	113	240	3
HLD	113	288	5	96
TAP	113	336	4
HLD	114	0	1	96
TAP	114	48	3
HLD	114	96	6	96
TAP	114	144	4
TAP	114	192	0
TAP	114	216	1
TAP	114	240	2
TAP	114	264	3
TAP	114	288	7
TAP	114	312	6
TAP	114	336	5
TAP	114	360	4
TAP	115	0	0
TAP	115	24	1
TAP	115	48	2
TAP	115	72	3
TAP	115	96	7
TAP	115	120	6
TAP	115	144	5
TAP	115	168	4
BST	115	192	0
SSL	115	192	0	96	48	4
TAP	116	0	5
TAP	116	48	4
TAP	116	48	6
TAP	116	144	2
TAP	116	192	3
TAP	116	240	1
TAP	116	240	4
TAP	116	336	5
TAP	117	0	4
TAP	117	48	3
TAP	117	48	6
TAP	117	96	3
STR	117	96	6
SI_	117	96	6	96	48	1
STR	117	192	2
SI_	117	192	2	96	48	5
STR	117	288	7
SI_	117	288	7	96	48	4
STR	118	0	3
SI_	118	0	3	96	48	0
STR	118	96	6
SI_	118	96	6	96	48	3
STR	118	192	2
SI_	118	192	2	96	48	7
TAP	118	288	4
BRK	119	0	5
BRK	119	0	6
BRK	119	72	1
BRK	119	72	2
BRK	119	240	1
BRK	119	240	2
BRK	119	312	5
BRK	119	312	6
BRK	120	96	3
BRK	120	96	4
BST	120	168	0
SXL	120	168	0	96	408	3
BST	120	168	7
SXR	120	168	7	96	408	4
BRK	122	0	1
BRK	122	0	6

T_REC_TAP	524
T_REC_BRK	17
T_REC_XTP	0
T_REC_HLD	78
T_REC_XHO	0
T_REC_STR	82
T_REC_BST	3
T_REC_XST	0
T_REC_TTP	0
T_REC_THO	0
T_REC_SLD	93
T_REC_ALL	797
T_NUM_TAP	606
T_NUM_BRK	20
T_NUM_HLD	78
T_NUM_SLD	93
T_NUM_ALL	797
T_JUDGE_TAP	626
T_JUDGE_HLD	316
T_JUDGE_SLD	93
T_JUDGE_ALL	1035
TTM_EACHPAIRS	111
TTM_SCR_TAP	303000
TTM_SCR_BRK	52000
TTM_SCR_HLD	78000
TTM_SCR_SLD	139500
TTM_SCR_ALL	572500
TTM_SCR_S	553400
TTM_SCR_SS	570500
TTM_RAT_ACV	10035

