VERSION	0.00.00	1.03.00
FES_MODE	0
BPM_DEF	200.000	200.000	200.000	200.000
MET_DEF	4	4
RESOLUTION	384
CLK_DEF	384
COMPATIBLE_CODE	MA2

BPM	0	0	200.000
MET	0	0	4	4
MET	103	0	4	2
MET	103	192	4	4
MET	115	192	4	2
MET	116	0	4	4

TAP	1	0	0
TAP	1	96	1
TAP	1	192	2
TAP	1	192	3
TAP	2	0	7
TAP	2	96	6
TAP	2	192	4
TAP	2	192	5
TAP	3	0	1
TAP	3	96	2
TAP	3	192	3
STR	3	288	3
SCL	3	288	3	96	192	0
STR	3	288	4
SCR	3	288	4	96	192	7
TAP	5	0	7
TAP	5	96	6
TAP	5	192	4
TAP	5	192	5
TAP	5	288	2
TAP	6	0	0
TAP	6	96	1
TAP	6	192	2
TAP	6	192	3
TAP	6	288	5
TAP	7	0	7
TAP	7	96	6
TAP	7	192	5
TAP	7	288	3
TAP	7	288	4
HLD	8	0	3	96
HLD	8	0	4	96
TAP	8	192	2
TAP	8	192	5
STR	9	0	0
SUR	9	0	0	96	192	4
STR	10	0	4
SUL	10	0	4	96	192	7
TAP	11	0	0
TAP	11	0	1
TAP	11	96	7
TAP	11	192	6
TAP	11	288	4
TAP	11	288	5
TAP	12	0	3
TAP	12	96	2
TAP	12	96	3
TAP	12	192	1
TAP	12	192	4
STR	13	0	7
SUL	13	0	7	96	192	3
STR	14	0	3
SUR	14	0	3	96	192	0
TAP	15	0	6
TAP	15	0	7
TAP	15	96	0
TAP	15	192	1
TAP	15	288	2
TAP	15	288	3
TAP	16	0	4
TAP	16	96	4
TAP	16	96	5
TAP	16	192	3
TAP	16	192	6
HLD	17	0	2	96
TAP	17	96	3
HLD	17	192	3	96
TAP	17	288	4
HLD	18	0	4	96
TAP	18	96	5
TAP	18	192	3
TAP	18	192	6
TAP	19	0	7
TAP	19	96	7
TAP	19	192	1
TAP	19	288	1
TAP	20	0	0
TAP	20	96	1
TAP	20	192	2
TAP	20	192	7
HLD	21	0	2	96
TAP	21	96	3
HLD	21	192	3	96
TAP	21	288	4
HLD	22	0	4	96
TAP	22	96	5
TAP	22	192	3
TAP	22	192	6
TAP	23	0	7
TAP	23	96	7
STR	23	192	1
SSL	23	192	1	96	336	5
TAP	25	0	6
HLD	25	48	6	144
HLD	25	192	7	192
HLD	26	0	0	192
TAP	26	192	1
TAP	27	0	1
HLD	27	48	1	144
HLD	27	192	0	192
HLD	28	0	7	192
TAP	28	192	6
TAP	29	0	7
HLD	29	48	7	144
HLD	29	192	1	192
HLD	30	0	3	192
TAP	30	192	2
TAP	31	0	0
HLD	31	48	0	144
HLD	31	192	6	192
HLD	32	0	4	192
TAP	32	192	5
HLD	33	0	6	96
TAP	33	96	7
HLD	33	192	0	96
TAP	33	288	7
HLD	34	0	6	96
TAP	34	96	7
TAP	34	192	0
TAP	34	192	5
HLD	35	0	2	96
TAP	35	96	3
HLD	35	192	4	96
TAP	35	288	3
HLD	36	0	2	96
TAP	36	96	3
TAP	36	192	1
TAP	36	192	4
TAP	37	0	4
TAP	37	0	5
TAP	37	96	3
TAP	37	192	2
TAP	37	192	3
TAP	37	288	4
TAP	38	0	4
TAP	38	0	6
TAP	38	96	3
TAP	38	192	1
TAP	38	192	4
TAP	39	0	5
TAP	39	96	4
TAP	39	96	6
TAP	39	192	2
TAP	39	288	1
TAP	39	288	3
TAP	40	0	4
TAP	40	0	5
TAP	40	96	2
TAP	40	96	3
STR	40	192	0
SF_	40	192	0	96	288	4
STR	42	0	3
SUL	42	0	3	96	192	7
STR	43	0	7
SUR	43	0	7	96	192	4
TAP	44	0	2
TAP	44	0	3
TAP	44	96	4
TAP	44	192	5
TAP	44	288	6
TAP	44	288	7
TAP	45	0	0
TAP	45	96	0
TAP	45	96	1
TAP	45	192	2
TAP	45	192	7
STR	46	0	4
SUR	46	0	4	96	192	0
STR	47	0	0
SUL	47	0	0	96	192	3
TAP	48	0	4
TAP	48	0	5
TAP	48	96	3
TAP	48	192	2
TAP	48	288	0
TAP	48	288	1
TAP	49	0	7
TAP	49	96	6
TAP	49	96	7
TAP	49	192	0
TAP	49	192	5
HLD	50	0	1	96
TAP	50	96	0
HLD	50	192	0	96
TAP	50	288	7
HLD	51	0	7	96
TAP	51	96	6
TAP	51	192	0
TAP	51	192	5
TAP	52	0	4
TAP	52	96	4
TAP	52	192	2
TAP	52	288	2
TAP	53	0	3
TAP	53	96	2
TAP	53	192	1
TAP	53	192	4
HLD	54	0	1	96
TAP	54	96	0
HLD	54	192	0	96
TAP	54	288	7
HLD	55	0	7	96
TAP	55	96	6
TAP	55	192	0
TAP	55	192	5
TAP	56	0	4
TAP	56	96	4
TAP	56	192	2
TAP	56	288	2
STR	57	0	1
SCR	57	0	1	96	192	5
HLD	58	0	7	384
TAP	58	192	6
HLD	59	0	6	384
TAP	59	192	5
HLD	60	0	5	384
TAP	60	192	4
HLD	61	0	4	384
TAP	61	192	3
HLD	62	0	3	384
TAP	62	192	1
HLD	63	0	1	384
TAP	63	192	7
HLD	64	0	7	384
TAP	64	192	6
HLD	65	0	6	192
HLD	65	192	5	192
HLD	66	0	4	192
HLD	66	192	3	192
TAP	67	0	2
HLD	67	192	0	1344
TAP	68	0	1
TAP	68	192	2
TAP	69	0	3
TAP	69	192	4
TAP	70	0	5
TAP	70	192	6
TAP	71	0	7
BRK	71	192	4
BRK	71	192	6
TAP	72	0	0
TAP	72	0	7
BRK	72	192	1
BRK	72	192	3
TAP	73	0	0
TAP	73	0	7
BST	73	192	2
SI_	73	192	2	96	288	7
BST	73	192	5
SI_	73	192	5	96	288	0
TAP	75	0	4
TAP	75	96	5
TAP	75	192	3
TAP	75	192	6
TAP	76	0	3
TAP	76	96	2
TAP	76	192	1
TAP	76	192	4
TAP	77	0	5
TAP	77	96	6
TAP	77	192	5
TAP	77	192	7
TAP	78	0	2
TAP	78	96	1
TAP	78	192	0
TAP	78	192	2
TAP	79	0	6
TAP	79	96	7
TAP	79	192	0
TAP	79	192	6
TAP	80	0	1
TAP	80	96	0
TAP	80	192	1
TAP	80	192	7
TAP	81	0	6
STR	81	96	7
SCL	81	96	7	96	384	0
HLD	83	0	0	96
HLD	83	0	7	96
TAP	83	192	1
TAP	83	288	2
HLD	84	0	3	96
HLD	84	0	4	96
TAP	84	192	2
TAP	84	288	1
HLD	85	0	0	96
HLD	85	0	7	96
TAP	85	192	6
TAP	85	288	4
TAP	85	288	5
HLD	86	0	2	96
HLD	86	0	3	96
TAP	86	192	5
TAP	86	288	6
TAP	86	288	7
HLD	87	0	0	96
HLD	87	0	1	96
TAP	87	192	6
TAP	87	192	7
TAP	87	288	5
HLD	88	0	3	96
HLD	88	0	4	96
TAP	88	192	6
TAP	88	288	0
TAP	88	288	7
HLD	89	0	1	96
HLD	89	0	6	96
TAP	89	192	2
TAP	89	192	5
TAP	89	288	3
TAP	89	288	4
STR	90	0	3
SI_	90	0	3	96	144	0
STR	90	0	4
SI_	90	0	4	96	144	7
TAP	91	0	7
BRK	91	96	0
BRK	91	96	6
TAP	91	192	5
TAP	91	288	4
TAP	92	0	3
TAP	92	0	4
TAP	92	96	2
TAP	92	192	1
TAP	92	288	0
TAP	92	288	7
TAP	93	0	6
TAP	93	96	5
TAP	93	96	7
TAP	93	192	1
TAP	93	288	0
TAP	93	288	2
TAP	94	0	7
TAP	94	96	0
TAP	94	96	7
TAP	94	192	1
TAP	94	192	6
TAP	95	0	0
TAP	95	96	1
TAP	95	192	2
TAP	95	288	3
TAP	95	288	4
TAP	96	0	4
TAP	96	96	5
TAP	96	192	6
TAP	96	288	0
TAP	96	288	7
TAP	97	0	1
TAP	97	96	0
TAP	97	96	2
TAP	97	192	6
TAP	97	288	5
TAP	97	288	7
TAP	98	0	0
TAP	98	96	0
TAP	98	96	7
TAP	98	192	1
TAP	98	192	6
TAP	99	0	4
TAP	99	0	5
TAP	99	96	6
TAP	99	192	4
TAP	99	192	5
TAP	99	288	7
TAP	100	0	4
TAP	100	0	5
TAP	100	96	0
TAP	100	192	4
TAP	100	192	5
TAP	100	288	1
TAP	101	0	2
TAP	101	0	3
TAP	101	96	1
TAP	101	192	2
TAP	101	192	3
TAP	101	288	0
TAP	102	0	2
TAP	102	0	3
TAP	102	96	7
TAP	102	192	2
TAP	102	192	3
TAP	102	288	6
TAP	103	0	5
TAP	103	0	7
TAP	103	192	2
TAP	103	192	3
TAP	103	288	0
TAP	103	288	1
TAP	104	0	2
TAP	104	0	3
TAP	104	96	0
TAP	104	96	7
TAP	104	192	2
TAP	104	192	3
TAP	104	288	6
TAP	104	288	7
TAP	105	0	2
TAP	105	0	3
TAP	105	96	4
TAP	105	96	6
TAP	105	192	4
TAP	105	192	5
TAP	105	288	6
TAP	105	288	7
TAP	106	0	0
TAP	106	0	1
TAP	106	96	2
TAP	106	96	3
TAP	106	192	4
TAP	106	192	5
TAP	106	288	2
TAP	106	288	7
TAP	107	0	2
TAP	107	0	3
TAP	107	96	0
TAP	107	96	5
HLD	107	192	4	96
HLD	107	192	5	96
HLD	108	0	4	96
HLD	108	0	6	96
HLD	108	192	3	96
HLD	108	192	5	96
TAP	109	0	3
TAP	109	0	6
HLD	109	192	2	96
HLD	109	192	3	96
HLD	110	0	1	96
HLD	110	0	3	96
HLD	110	192	2	96
HLD	110	192	4	96
TAP	111	0	1
TAP	111	0	4
TAP	111	192	4
TAP	111	192	5
TAP	111	288	4
TAP	111	288	6
TAP	112	0	3
TAP	112	0	5
TAP	112	96	3
TAP	112	96	6
TAP	112	192	2
TAP	112	192	3
TAP	112	288	1
TAP	112	288	3
TAP	113	0	2
TAP	113	0	4
TAP	113	96	1
TAP	113	96	4
TAP	113	192	5
TAP	113	240	5
TAP	113	288	7
TAP	114	0	2
TAP	114	48	2
TAP	114	96	0
TAP	114	192	6
TAP	114	240	6
TAP	114	288	1
TAP	114	336	1
TAP	115	0	7
TAP	115	48	7
TAP	115	96	0
HLD	115	192	0	96
HLD	115	192	7	96
TAP	116	0	0
TAP	116	0	7
TAP	116	96	1
TAP	116	96	6
TAP	116	192	2
TAP	116	192	5
STR	116	288	3
SXR	116	288	3	96	576	0
STR	116	288	4
SXL	116	288	4	96	576	7
TAP	119	0	2
TAP	119	0	7
TAP	119	80	0
TAP	119	80	1
TAP	119	240	0
TAP	119	240	5
TAP	119	320	6
TAP	119	320	7
TAP	120	96	1
TAP	120	96	6
HLD	120	176	0	400
HLD	120	176	7	400
BRK	122	0	1
BRK	122	0	6

T_REC_TAP	365
T_REC_BRK	8
T_REC_XTP	0
T_REC_HLD	74
T_REC_XHO	0
T_REC_STR	18
T_REC_BST	2
T_REC_XST	0
T_REC_TTP	0
T_REC_THO	0
T_REC_SLD	20
T_REC_ALL	487
T_NUM_TAP	383
T_NUM_BRK	10
T_NUM_HLD	74
T_NUM_SLD	20
T_NUM_ALL	487
T_JUDGE_TAP	393
T_JUDGE_HLD	258
T_JUDGE_SLD	20
T_JUDGE_ALL	671
TTM_EACHPAIRS	131
TTM_SCR_TAP	191500
TTM_SCR_BRK	26000
TTM_SCR_HLD	74000
TTM_SCR_SLD	30000
TTM_SCR_ALL	321500
TTM_SCR_S	310900
TTM_SCR_SS	320500
TTM_RAT_ACV	10031

