VERSION	0.00.00	1.03.00
FES_MODE	0
BPM_DEF	200.000	200.000	200.000	200.000
MET_DEF	4	4
RESOLUTION	384
CLK_DEF	384
COMPATIBLE_CODE	MA2

BPM	0	0	200.000
MET	0	0	4	4
MET	103	0	4	2
MET	103	192	4	4
MET	115	192	4	2
MET	116	0	4	4

TAP	5	0	0
TAP	5	96	0
TAP	5	192	0
TAP	6	0	1
TAP	6	96	1
TAP	6	192	1
TAP	7	0	2
TAP	7	96	2
TAP	7	192	2
HLD	8	0	3	192
HLD	8	0	4	192
STR	9	0	5
SI_	9	0	5	96	288	0
TAP	11	0	6
TAP	11	0	7
TAP	11	96	6
TAP	11	96	7
TAP	11	192	6
TAP	11	192	7
TAP	12	0	0
TAP	12	0	1
TAP	12	96	0
TAP	12	96	1
TAP	12	192	0
TAP	12	192	1
STR	13	0	2
SI_	13	0	2	96	288	7
TAP	15	0	0
TAP	15	0	1
TAP	15	96	0
TAP	15	96	1
TAP	15	192	0
TAP	15	192	1
TAP	16	0	6
TAP	16	0	7
TAP	16	96	6
TAP	16	96	7
TAP	16	192	6
TAP	16	192	7
TAP	17	0	5
TAP	17	96	5
TAP	17	192	4
TAP	17	288	4
TAP	18	0	3
TAP	18	96	3
TAP	18	192	2
TAP	18	288	2
HLD	19	0	0	192
HLD	19	0	1	192
HLD	20	0	0	192
HLD	20	0	1	192
TAP	21	0	2
TAP	21	96	2
TAP	21	192	3
TAP	21	288	3
TAP	22	0	4
TAP	22	96	4
TAP	22	192	5
TAP	22	288	5
HLD	23	0	6	192
HLD	23	0	7	192
HLD	24	0	6	192
HLD	24	0	7	192
STR	25	0	0
SI_	25	0	0	96	288	3
TAP	26	192	6
TAP	26	288	6
STR	27	0	7
SI_	27	0	7	96	288	4
TAP	28	192	1
TAP	28	288	1
STR	29	0	0
SI_	29	0	0	96	288	4
TAP	30	192	6
TAP	30	288	6
STR	31	0	7
SI_	31	0	7	96	288	3
TAP	32	192	1
TAP	32	288	1
TAP	33	0	0
TAP	33	192	0
TAP	33	192	1
TAP	34	0	2
TAP	34	192	2
TAP	34	192	3
TAP	35	0	4
TAP	35	192	4
TAP	35	192	5
TAP	36	0	6
TAP	36	192	6
TAP	36	192	7
TAP	37	0	6
TAP	37	0	7
TAP	37	96	6
TAP	37	96	7
TAP	37	192	6
TAP	37	192	7
TAP	38	0	4
TAP	38	0	5
TAP	38	96	4
TAP	38	96	5
TAP	38	192	4
TAP	38	192	5
TAP	39	0	3
TAP	39	96	3
TAP	39	192	2
TAP	39	288	2
TAP	40	0	1
TAP	40	96	1
TAP	40	192	0
TAP	40	192	7
TAP	40	288	0
TAP	40	288	7
BRK	41	0	1
BRK	41	0	6
HLD	42	0	2	576
HLD	43	0	3	192
TAP	44	0	2
TAP	44	0	3
TAP	44	96	2
TAP	44	96	3
TAP	44	192	1
TAP	44	192	4
TAP	45	0	4
TAP	45	0	5
TAP	45	96	4
TAP	45	96	5
TAP	45	192	3
TAP	45	192	6
HLD	46	0	5	576
HLD	47	0	4	192
TAP	48	0	4
TAP	48	0	5
TAP	48	96	4
TAP	48	96	5
TAP	48	192	3
TAP	48	192	6
TAP	49	0	2
TAP	49	0	3
TAP	49	96	2
TAP	49	96	3
TAP	49	192	1
TAP	49	192	4
STR	50	0	2
SI_	50	0	2	96	288	7
STR	50	0	3
SI_	50	0	3	96	288	6
TAP	52	0	6
TAP	52	0	7
TAP	52	96	6
TAP	52	96	7
TAP	52	192	0
TAP	52	192	5
TAP	53	0	0
TAP	53	0	1
TAP	53	96	0
TAP	53	96	1
TAP	53	192	2
TAP	53	192	7
STR	54	0	0
SI_	54	0	0	96	288	5
STR	54	0	1
SI_	54	0	1	96	288	4
TAP	56	0	4
TAP	56	0	5
TAP	56	96	4
TAP	56	96	5
TAP	56	192	3
TAP	56	192	6
TAP	57	0	2
TAP	57	0	3
TAP	57	96	2
TAP	57	96	3
TAP	57	192	1
TAP	57	192	4
HLD	58	0	3	384
HLD	58	0	4	384
HLD	60	0	2	384
HLD	60	0	5	384
HLD	62	0	1	384
HLD	62	0	6	384
HLD	64	0	0	384
HLD	64	0	7	384
TAP	66	0	0
TAP	66	0	7
HLD	67	0	0	192
HLD	67	0	7	192
HLD	68	0	1	192
HLD	68	0	6	192
HLD	69	0	2	192
HLD	69	0	5	192
HLD	70	0	3	192
HLD	70	0	4	192
TAP	71	0	3
TAP	71	0	4
BRK	71	192	2
BRK	71	192	3
TAP	72	0	3
TAP	72	0	4
BRK	72	192	4
BRK	72	192	5
TAP	73	0	3
TAP	73	0	4
BRK	73	192	2
BRK	73	192	5
TAP	75	0	3
TAP	75	192	2
TAP	75	192	3
TAP	76	0	4
TAP	76	192	4
TAP	76	192	5
TAP	77	0	3
TAP	77	192	2
TAP	77	192	3
TAP	78	0	4
TAP	78	192	4
TAP	78	192	5
TAP	79	0	3
TAP	79	96	3
TAP	79	192	2
TAP	79	192	3
TAP	79	288	2
TAP	79	288	3
TAP	80	0	4
TAP	80	96	4
TAP	80	192	4
TAP	80	192	5
TAP	80	288	4
TAP	80	288	5
TAP	81	0	3
TAP	81	96	3
TAP	81	192	2
TAP	81	192	3
TAP	81	288	2
TAP	81	288	3
BRK	82	0	4
TAP	83	0	3
TAP	83	0	4
TAP	83	192	3
TAP	83	288	3
TAP	84	0	2
TAP	84	0	4
TAP	84	192	4
TAP	84	288	4
TAP	85	0	3
TAP	85	0	5
TAP	85	192	2
TAP	85	288	2
TAP	86	0	1
TAP	86	0	3
TAP	86	192	5
TAP	86	288	5
TAP	87	0	4
TAP	87	0	6
TAP	87	192	7
TAP	87	288	7
TAP	88	0	0
TAP	88	0	6
TAP	88	192	0
TAP	88	288	0
TAP	89	0	1
TAP	89	0	7
HLD	89	192	0	96
HLD	89	192	7	96
TAP	90	0	0
TAP	90	0	7
TAP	90	192	0
TAP	90	192	7
BRK	90	288	1
BRK	90	288	6
TAP	91	0	2
TAP	91	96	2
TAP	91	192	3
TAP	91	288	3
TAP	92	0	4
TAP	92	96	4
TAP	92	192	5
TAP	92	288	5
HLD	93	0	4	96
HLD	93	0	5	96
HLD	93	192	2	96
HLD	93	192	3	96
TAP	94	0	3
TAP	94	0	4
TAP	94	96	3
TAP	94	96	4
TAP	94	192	2
TAP	94	192	5
HLD	95	0	2	288
HLD	96	0	3	288
HLD	97	0	4	288
HLD	98	0	5	288
TAP	99	0	6
TAP	99	0	7
TAP	99	96	6
TAP	99	96	7
TAP	99	192	6
TAP	99	192	7
TAP	99	288	6
TAP	99	288	7
TAP	100	0	6
TAP	100	0	7
TAP	100	96	6
TAP	100	96	7
TAP	100	192	6
TAP	100	192	7
TAP	100	288	6
TAP	100	288	7
TAP	101	0	6
TAP	101	0	7
TAP	101	96	6
TAP	101	96	7
TAP	101	192	6
TAP	101	192	7
TAP	101	288	6
TAP	101	288	7
TAP	102	0	6
TAP	102	0	7
TAP	102	96	6
TAP	102	96	7
TAP	102	192	6
TAP	102	192	7
TAP	102	288	6
TAP	102	288	7
HLD	103	0	0	96
TAP	103	192	0
TAP	103	192	1
TAP	103	288	0
TAP	103	288	1
TAP	104	0	0
TAP	104	0	1
TAP	104	96	0
TAP	104	96	1
TAP	104	192	0
TAP	104	192	1
TAP	104	288	0
TAP	104	288	1
TAP	105	0	0
TAP	105	0	1
TAP	105	96	0
TAP	105	96	1
TAP	105	192	0
TAP	105	192	1
TAP	105	288	0
TAP	105	288	1
TAP	106	0	0
TAP	106	0	1
TAP	106	96	0
TAP	106	96	1
TAP	106	192	0
TAP	106	192	1
TAP	106	288	0
TAP	106	288	1
TAP	107	0	0
TAP	107	0	1
TAP	107	96	0
TAP	107	96	1
HLD	107	192	2	96
HLD	108	0	3	96
HLD	108	192	4	96
HLD	109	0	5	96
HLD	109	192	6	96
HLD	110	0	7	96
HLD	110	192	0	96
HLD	111	0	1	96
TAP	111	192	2
TAP	111	288	3
TAP	112	0	4
TAP	112	96	5
TAP	112	192	6
TAP	112	288	7
TAP	113	0	0
TAP	113	96	1
TAP	113	192	2
TAP	113	240	2
TAP	113	288	2
TAP	114	0	3
TAP	114	48	3
TAP	114	96	3
TAP	114	192	4
TAP	114	240	4
TAP	114	288	4
TAP	115	0	5
TAP	115	48	5
TAP	115	96	5
BRK	115	192	6
HLD	116	0	7	960
HLD	117	160	0	416
TAP	119	0	7
TAP	119	72	7
TAP	119	240	0
TAP	119	312	0
TAP	120	96	0
TAP	120	96	7
STR	120	168	0
SI_	120	168	0	96	288	3
STR	120	168	7
SI_	120	168	7	96	288	4
BRK	122	0	2
BRK	122	0	5

T_REC_TAP	311
T_REC_BRK	14
T_REC_XTP	0
T_REC_HLD	51
T_REC_XHO	0
T_REC_STR	12
T_REC_BST	0
T_REC_XST	0
T_REC_TTP	0
T_REC_THO	0
T_REC_SLD	12
T_REC_ALL	400
T_NUM_TAP	323
T_NUM_BRK	14
T_NUM_HLD	51
T_NUM_SLD	12
T_NUM_ALL	400
T_JUDGE_TAP	337
T_JUDGE_HLD	251
T_JUDGE_SLD	12
T_JUDGE_ALL	600
TTM_EACHPAIRS	132
TTM_SCR_TAP	161500
TTM_SCR_BRK	36400
TTM_SCR_HLD	51000
TTM_SCR_SLD	18000
TTM_SCR_ALL	266900
TTM_SCR_S	257550
TTM_SCR_SS	265500
TTM_RAT_ACV	10052

