VERSION	0.00.00	1.03.00
FES_MODE	0
BPM_DEF	140.000	140.000	140.000	140.000
MET_DEF	4	4
RESOLUTION	384
CLK_DEF	384
COMPATIBLE_CODE	MA2

BPM	0	0	140.000
MET	68	0	4	2
MET	68	192	4	4

TAP	1	240	3
TAP	1	264	4
BRK	1	288	2
BRK	1	288	5
STR	2	0	3
SI_	2	0	3	96	288	0
STR	2	192	7
SUL	2	192	7	96	288	2
STR	3	336	0
SCR	3	336	0	96	240	4
STR	4	0	4
SCR	4	0	4	96	192	0
TAP	5	0	4
TAP	5	0	5
TAP	5	72	0
TAP	5	72	4
TAP	5	144	2
TAP	5	144	3
TAP	5	216	3
TAP	5	216	7
TAP	5	288	0
TAP	5	288	5
TAP	5	336	2
TAP	5	336	7
STR	6	0	2
SUR	6	0	2	96	288	7
STR	6	192	0
SI_	6	192	0	96	288	3
STR	7	336	7
SCL	7	336	7	96	240	3
STR	8	0	3
SCL	8	0	3	96	192	7
TAP	9	0	2
TAP	9	0	3
TAP	9	72	3
TAP	9	72	7
TAP	9	144	4
TAP	9	144	5
TAP	9	216	0
TAP	9	216	4
TAP	9	288	2
TAP	9	288	7
TAP	9	336	0
TAP	9	336	5
HLD	10	0	0	96
TAP	10	0	7
TAP	10	96	1
TAP	10	144	2
TAP	10	168	3
HLD	10	192	2	72
HLD	10	264	4	72
HLD	10	336	6	48
STR	11	0	7
SCR	11	0	7	96	96	3
STR	11	96	3
SCR	11	96	3	96	96	7
TAP	11	192	7
TAP	11	240	0
TAP	11	288	1
TAP	11	336	2
STR	12	0	3
SI_	12	0	3	96	48	6
TAP	12	72	4
TAP	12	144	7
STR	12	192	7
SCL	12	192	7	96	48	4
STR	12	288	7
SCR	12	288	7	96	96	5
TAP	13	0	7
TAP	13	96	6
HLD	13	192	6	72
HLD	13	264	7	72
TAP	13	336	0
HLD	14	0	2	72
HLD	14	72	1	72
TAP	14	144	0
STR	14	192	0
SI_	14	192	0	96	48	4
STR	14	288	6
SI_	14	288	6	96	48	3
STR	15	0	2
SI_	15	0	2	96	48	6
STR	15	96	4
SF_	15	96	4	96	48	0
TAP	15	192	4
TAP	15	288	3
TAP	15	336	4
HLD	16	0	3	72
TAP	16	0	5
TAP	16	72	2
TAP	16	144	1
TAP	16	144	4
TAP	16	192	3
HLD	16	192	6	96
TAP	16	288	7
TAP	17	0	0
HLD	17	0	7	288
TAP	17	72	0
TAP	17	144	5
TAP	17	216	5
TAP	17	288	0
TAP	17	336	6
HLD	18	0	2	72
HLD	18	72	3	72
TAP	18	144	4
HLD	18	216	5	120
TAP	18	288	4
TAP	18	336	4
HLD	19	0	2	192
TAP	19	72	3
TAP	19	144	1
STR	19	192	1
SI_	19	192	1	96	48	4
TAP	19	288	1
TAP	19	288	7
HLD	20	0	5	192
TAP	20	72	4
TAP	20	144	6
STR	20	192	6
SI_	20	192	6	96	48	3
TAP	20	288	0
TAP	20	288	6
HLD	21	0	2	192
TAP	21	72	3
TAP	21	144	1
STR	21	192	1
SI_	21	192	1	96	48	4
TAP	21	288	1
TAP	21	288	7
HLD	22	0	6	144
TAP	22	72	4
HLD	22	144	1	72
TAP	22	216	3
TAP	22	288	4
TAP	22	336	3
HLD	23	0	6	192
TAP	23	72	7
TAP	23	144	5
STR	23	192	5
SI_	23	192	5	96	48	0
TAP	23	288	5
TAP	23	288	6
HLD	24	0	1	192
TAP	24	72	0
TAP	24	144	2
STR	24	192	2
SI_	24	192	2	96	48	7
TAP	24	288	1
TAP	24	288	2
HLD	25	0	6	192
TAP	25	72	7
TAP	25	144	5
STR	25	192	5
SI_	25	192	5	96	48	0
TAP	25	288	5
TAP	25	288	6
HLD	26	0	2	144
TAP	26	72	0
HLD	26	144	5	72
TAP	26	216	7
TAP	26	288	3
TAP	26	336	4
TAP	27	0	2
TAP	27	0	3
TAP	27	72	1
TAP	27	72	4
TAP	27	144	0
TAP	27	144	5
STR	27	192	6
SI_	27	192	6	96	48	3
STR	27	192	7
SI_	27	192	7	96	48	2
TAP	27	288	6
TAP	27	288	7
TAP	28	0	4
TAP	28	0	5
TAP	28	72	3
TAP	28	72	6
TAP	28	144	2
TAP	28	144	7
STR	28	192	0
SI_	28	192	0	96	48	5
STR	28	192	1
SI_	28	192	1	96	48	4
TAP	28	288	0
TAP	28	288	1
TAP	29	0	6
STR	29	0	7
SCR	29	0	7	96	48	2
TAP	29	72	5
TAP	29	144	4
STR	29	192	3
SCR	29	192	3	96	48	6
TAP	29	264	2
TAP	29	336	1
HLD	30	0	0	144
TAP	30	72	2
HLD	30	144	7	72
TAP	30	216	5
TAP	30	288	0
TAP	30	288	7
TAP	30	336	1
TAP	30	336	6
TAP	31	0	2
HLD	31	0	3	72
HLD	31	72	4	72
TAP	31	144	5
HLD	31	192	5	72
TAP	31	192	7
HLD	31	264	3	72
TAP	31	336	1
TAP	32	0	0
HLD	32	0	1	72
HLD	32	72	4	72
TAP	32	144	6
TAP	32	192	0
TAP	32	192	7
TAP	32	288	7
TAP	32	336	6
HLD	33	0	5	72
HLD	33	72	4	72
HLD	33	144	3	48
TAP	33	192	2
STR	33	288	1
SUR	33	288	1	96	48	5
STR	33	288	5
SUR	33	288	5	96	48	1
TAP	34	0	1
TAP	34	0	5
STR	34	96	0
SCL	34	96	0	96	48	5
STR	34	96	4
SCL	34	96	4	96	48	1
TAP	34	192	0
TAP	34	192	4
TAP	34	288	2
TAP	34	336	3
TAP	35	0	4
TAP	35	0	5
TAP	35	72	2
TAP	35	72	3
TAP	35	144	6
TAP	35	144	7
TAP	35	216	0
TAP	35	216	1
TAP	35	288	2
TAP	35	288	6
TAP	35	336	0
TAP	35	336	4
TAP	36	0	2
TAP	36	0	3
TAP	36	72	4
TAP	36	72	5
TAP	36	144	0
TAP	36	144	1
TAP	36	216	6
TAP	36	216	7
TAP	36	288	1
TAP	36	288	5
TAP	36	336	3
TAP	36	336	7
STR	37	0	0
SI_	37	0	0	96	288	4
STR	38	0	7
SI_	38	0	7	96	288	3
STR	39	0	2
SI_	39	0	2	96	96	7
STR	39	192	5
SI_	39	192	5	96	96	0
STR	40	0	3
SI_	40	0	3	96	96	7
TAP	40	192	4
TAP	40	264	5
TAP	40	336	6
TAP	41	0	2
STR	41	0	7
SI_	41	0	7	96	48	3
TAP	41	96	0
TAP	41	144	1
STR	41	192	2
SI_	41	192	2	96	48	6
TAP	41	264	3
TAP	41	336	4
STR	42	0	5
SI_	42	0	5	96	48	1
TAP	42	72	6
TAP	42	144	7
STR	42	192	0
SI_	42	192	0	96	48	4
TAP	42	288	1
TAP	42	336	2
HLD	43	0	3	96
TAP	43	0	5
TAP	43	96	1
TAP	43	192	3
HLD	43	192	5	96
TAP	43	288	7
TAP	44	0	0
TAP	44	0	1
TAP	44	72	6
TAP	44	72	7
TAP	44	144	0
TAP	44	144	2
TAP	44	216	5
TAP	44	216	7
TAP	44	288	2
TAP	44	288	3
TAP	44	336	4
TAP	44	336	5
HLD	45	0	3	96
TAP	45	96	2
HLD	45	192	5	72
HLD	45	264	6	72
HLD	45	336	7	48
STR	46	0	0
SSL	46	0	0	96	72	4
STR	46	192	7
SI_	46	192	7	96	48	3
STR	46	288	7
SCL	46	288	7	96	96	3
SCR	46	288	7	96	96	3
TAP	47	0	7
HLD	47	192	0	72
HLD	47	264	1	72
HLD	47	336	2	48
STR	48	0	3
SI_	48	0	3	96	48	7
TAP	48	192	3
TAP	48	264	2
TAP	48	336	1
STR	49	0	0
SI_	49	0	0	96	48	4
TAP	49	96	0
TAP	49	96	5
TAP	49	144	6
STR	49	192	7
SI_	49	192	7	96	48	3
TAP	49	288	2
TAP	49	288	7
TAP	49	336	1
STR	50	0	0
SI_	50	0	0	96	48	4
TAP	50	96	0
TAP	50	96	7
HLD	50	192	6	72
HLD	50	264	4	72
HLD	50	336	3	48
HLD	51	0	2	192
TAP	51	96	4
HLD	51	192	5	192
TAP	51	264	4
TAP	51	336	3
STR	52	0	3
SCL	52	0	3	96	48	0
TAP	52	96	6
STR	52	192	7
SCL	52	192	7	96	48	4
TAP	52	288	1
TAP	53	0	2
TAP	53	0	3
TAP	53	72	2
TAP	53	72	3
TAP	53	144	4
TAP	53	144	5
TAP	53	216	4
TAP	53	216	5
TAP	53	288	2
TAP	53	288	3
TAP	53	336	1
TAP	53	336	4
TAP	54	0	3
TAP	54	0	5
TAP	54	72	3
TAP	54	72	5
TAP	54	144	2
TAP	54	144	4
TAP	54	216	2
TAP	54	216	4
TAP	54	288	3
TAP	54	288	5
TAP	54	336	2
TAP	54	336	6
HLD	55	0	1	48
HLD	55	0	3	48
HLD	55	72	1	48
HLD	55	72	3	48
HLD	55	144	4	48
HLD	55	144	6	48
HLD	55	216	4	48
HLD	55	216	6	48
TAP	55	288	0
TAP	55	288	7
TAP	55	336	1
TAP	55	336	6
HLD	56	0	5	48
HLD	56	0	7	48
HLD	56	72	5	48
HLD	56	72	7	48
HLD	56	144	0	48
HLD	56	144	2	48
HLD	56	216	0	48
HLD	56	216	2	48
TAP	56	288	1
TAP	56	288	6
TAP	56	336	0
TAP	56	336	7
TAP	57	240	0
TAP	57	264	7
BST	57	288	1
SI_	57	288	1	96	48	4
TAP	57	288	6
TAP	58	0	1
TAP	58	0	7
TAP	58	240	7
TAP	58	264	0
TAP	58	288	1
STR	58	288	6
SI_	58	288	6	96	48	3
HLD	59	0	2	72
TAP	59	0	6
HLD	59	72	1	72
TAP	59	144	0
HLD	59	192	5	72
HLD	59	264	6	72
TAP	59	336	7
STR	60	0	7
SI_	60	0	7	96	48	2
TAP	60	72	0
TAP	60	144	0
TAP	60	192	3
TAP	60	192	4
TAP	60	288	1
TAP	60	288	6
TAP	61	0	0
HLD	61	0	7	144
TAP	61	72	6
TAP	61	144	2
HLD	61	192	0	144
TAP	61	192	7
TAP	61	264	1
TAP	61	336	5
TAP	62	0	3
HLD	62	0	4	144
TAP	62	72	5
TAP	62	144	1
TAP	62	192	0
TAP	62	192	7
TAP	62	288	0
TAP	62	336	7
HLD	63	0	2	72
HLD	63	72	4	72
TAP	63	144	5
TAP	63	192	1
TAP	63	192	6
STR	63	288	0
SUR	63	288	0	96	192	5
STR	63	288	7
SUL	63	288	7	96	192	2
TAP	64	0	0
TAP	64	0	7
STR	64	288	3
SI_	64	288	3	96	192	0
STR	64	288	4
SI_	64	288	4	96	192	7
TAP	65	0	3
TAP	65	0	4
TAP	65	288	0
TAP	65	312	7
TAP	65	336	1
TAP	65	360	6
HLD	66	0	3	48
HLD	66	0	7	48
HLD	66	72	1	48
HLD	66	72	5	48
HLD	66	144	2	48
HLD	66	144	6	48
HLD	66	216	0	48
HLD	66	216	4	48
TAP	66	288	7
TAP	66	312	0
TAP	66	336	7
HLD	67	0	0	48
HLD	67	0	4	48
HLD	67	72	2	48
HLD	67	72	6	48
HLD	67	144	1	48
HLD	67	144	5	48
HLD	67	216	3	48
HLD	67	216	7	48
TAP	67	288	0
TAP	67	312	7
TAP	67	336	0
TAP	68	0	0
TAP	68	12	1
TAP	68	24	2
TAP	68	36	3
TAP	68	48	4
TAP	68	60	5
TAP	68	72	6
TAP	68	84	7
BST	68	96	0
SI_	68	96	0	96	48	4
HLD	68	192	7	96
TAP	68	288	6
TAP	68	336	5
TAP	68	360	4
HLD	69	0	5	72
HLD	69	72	3	72
HLD	69	144	1	48
STR	69	192	0
SCL	69	192	0	96	96	4
STR	69	288	4
SCL	69	288	4	96	96	0
TAP	70	0	0
TAP	70	48	7
TAP	70	96	6
TAP	70	144	5
STR	70	192	4
SI_	70	192	4	96	48	1
TAP	70	264	2
TAP	70	336	0
STR	71	0	0
SCR	71	0	0	96	48	3
STR	71	96	0
SCL	71	96	0	96	96	2
TAP	71	192	0
TAP	71	288	1
HLD	72	0	1	72
HLD	72	72	0	72
TAP	72	144	7
HLD	72	192	5	72
HLD	72	264	6	72
TAP	72	336	7
STR	73	0	7
SI_	73	0	7	96	48	3
STR	73	96	1
SI_	73	96	1	96	48	4
TAP	73	96	7
TAP	73	192	1
STR	73	192	5
SI_	73	192	5	96	48	1
STR	73	288	3
SF_	73	288	3	96	48	7
TAP	73	288	5
TAP	74	0	3
TAP	74	96	4
TAP	74	144	3
HLD	74	192	2	72
TAP	74	192	5
TAP	74	264	1
TAP	74	336	0
STR	75	0	0
SI_	75	0	0	96	48	4
STR	75	0	7
SI_	75	0	7	96	48	5
STR	75	96	0
SI_	75	96	0	96	48	2
STR	75	96	7
SI_	75	96	7	96	48	3
TAP	75	192	0
TAP	75	192	7
TAP	75	288	1
TAP	75	288	6
HLD	76	0	6	72
HLD	76	72	7	72
TAP	76	144	0
HLD	76	192	2	72
HLD	76	264	1	72
TAP	76	336	0
STR	77	0	0
SI_	77	0	0	96	48	4
TAP	77	96	0
STR	77	96	6
SI_	77	96	6	96	48	3
STR	77	192	2
SI_	77	192	2	96	48	6
TAP	77	192	6
TAP	77	288	2
STR	77	288	4
SF_	77	288	4	96	48	0
TAP	78	0	4
STR	78	96	3
SXR	78	96	3	96	192	0
STR	78	96	7
SXR	78	96	7	96	192	4
TAP	78	144	3
TAP	78	144	7
TAP	78	192	3
TAP	78	192	7
TAP	79	96	2
TAP	79	96	5
TAP	79	144	3
TAP	79	144	6
STR	79	192	4
SI_	79	192	4	96	48	1
STR	79	192	7
SI_	79	192	7	96	48	4
STR	80	0	0
SCR	80	0	0	96	48	3
STR	80	0	4
SCR	80	0	4	96	48	7
STR	80	192	3
SI_	80	192	3	96	576	0
STR	80	192	7
SUL	80	192	7	96	576	2
TAP	82	192	3
TAP	82	216	4
TAP	82	240	2
TAP	82	240	5
TAP	82	288	0
TAP	82	312	7
TAP	82	336	1
BRK	82	360	2
BRK	82	360	5

T_REC_TAP	338
T_REC_BRK	4
T_REC_XTP	0
T_REC_HLD	103
T_REC_XHO	0
T_REC_STR	82
T_REC_BST	2
T_REC_XST	0
T_REC_TTP	0
T_REC_THO	0
T_REC_SLD	85
T_REC_ALL	614
T_NUM_TAP	420
T_NUM_BRK	6
T_NUM_HLD	103
T_NUM_SLD	85
T_NUM_ALL	614
T_JUDGE_TAP	426
T_JUDGE_HLD	195
T_JUDGE_SLD	85
T_JUDGE_ALL	706
TTM_EACHPAIRS	137
TTM_SCR_TAP	210000
TTM_SCR_BRK	15600
TTM_SCR_HLD	103000
TTM_SCR_SLD	127500
TTM_SCR_ALL	456100
TTM_SCR_S	441850
TTM_SCR_SS	455500
TTM_RAT_ACV	10013

