VERSION	0.00.00	1.03.00
FES_MODE	0
BPM_DEF	140.000	140.000	140.000	140.000
MET_DEF	4	4
RESOLUTION	384
CLK_DEF	384
COMPATIBLE_CODE	MA2

BPM	0	0	140.000
MET	0	0	4	4
MET	68	0	4	2
MET	68	192	4	4

TAP	1	240	3
TAP	1	240	4
TAP	1	288	3
TAP	1	288	4
STR	2	0	4
SCR	2	0	4	96	480	3
TAP	4	0	3
TAP	4	0	4
TAP	5	0	4
TAP	5	0	5
TAP	5	72	3
TAP	5	72	6
TAP	5	144	2
TAP	5	144	3
TAP	5	216	1
TAP	5	216	4
TAP	5	288	3
TAP	5	288	4
TAP	5	336	3
TAP	5	336	4
HLD	6	0	2	384
TAP	6	0	5
HLD	7	0	7	672
HLD	8	0	0	288
TAP	9	0	2
TAP	9	0	3
TAP	9	72	1
TAP	9	72	4
TAP	9	144	4
TAP	9	144	5
TAP	9	216	3
TAP	9	216	6
TAP	9	288	3
TAP	9	288	4
TAP	10	0	4
TAP	10	0	6
TAP	10	96	0
TAP	10	192	1
TAP	10	192	3
TAP	10	288	7
HLD	11	0	1	288
TAP	11	96	0
TAP	11	192	7
TAP	11	288	5
TAP	12	0	2
TAP	12	0	4
TAP	12	96	6
TAP	12	192	3
TAP	12	192	5
TAP	12	288	1
HLD	13	0	7	192
TAP	13	192	0
TAP	13	288	3
TAP	13	288	4
TAP	14	0	1
STR	14	0	5
SCL	14	0	5	96	96	2
TAP	14	192	0
TAP	14	288	0
TAP	15	0	2
TAP	15	0	5
TAP	15	96	3
TAP	15	96	4
TAP	15	192	0
TAP	15	192	7
STR	15	288	1
SCL	15	288	1	96	96	6
TAP	15	288	5
TAP	16	192	3
TAP	16	192	4
TAP	16	288	0
TAP	16	288	7
HLD	17	0	1	288
HLD	17	0	6	288
STR	18	0	7
SCL	18	0	7	96	192	0
HLD	19	0	1	72
HLD	19	72	2	72
TAP	19	144	3
TAP	19	192	3
TAP	19	288	2
TAP	19	288	4
HLD	20	0	6	72
HLD	20	72	5	72
TAP	20	144	4
TAP	20	192	4
TAP	20	288	3
TAP	20	288	5
HLD	21	0	1	72
HLD	21	72	2	72
TAP	21	144	3
TAP	21	192	3
STR	21	288	2
SCL	21	288	2	96	192	5
TAP	21	288	4
TAP	22	288	3
TAP	22	288	4
HLD	23	0	6	72
HLD	23	72	5	72
TAP	23	144	4
TAP	23	192	4
TAP	23	288	3
TAP	23	288	5
HLD	24	0	1	72
HLD	24	72	2	72
TAP	24	144	3
TAP	24	192	3
TAP	24	288	2
TAP	24	288	4
HLD	25	0	6	72
HLD	25	72	5	72
TAP	25	144	4
TAP	25	192	4
TAP	25	288	3
TAP	25	288	5
STR	26	0	2
SI_	26	0	2	96	96	5
STR	26	0	6
SI_	26	0	6	96	96	1
TAP	26	288	3
TAP	26	288	4
STR	27	0	1
SCL	27	0	1	96	96	6
TAP	27	0	3
TAP	27	192	4
TAP	27	288	4
TAP	27	288	5
TAP	28	0	2
STR	28	0	7
SI_	28	0	7	96	96	3
TAP	28	192	1
TAP	28	288	0
TAP	28	288	7
STR	29	0	5
SCR	29	0	5	96	96	0
STR	29	192	2
SCL	29	192	2	96	96	7
HLD	30	0	5	288
TAP	30	192	2
TAP	30	288	2
TAP	31	0	4
STR	31	0	6
SCR	31	0	6	96	96	1
TAP	31	192	3
TAP	31	288	2
STR	32	0	0
SI_	32	0	0	96	96	4
STR	32	0	7
SI_	32	0	7	96	96	3
TAP	32	288	0
TAP	32	288	7
STR	33	0	2
SCL	33	0	2	96	96	7
STR	33	192	5
SCR	33	192	5	96	96	0
HLD	34	0	1	288
HLD	34	192	6	96
HLD	35	0	2	72
HLD	35	72	0	72
HLD	35	144	7	72
HLD	35	216	5	72
TAP	35	288	2
HLD	36	0	5	72
HLD	36	72	7	72
HLD	36	144	0	72
HLD	36	216	2	72
TAP	36	288	5
HLD	37	0	1	384
HLD	38	0	3	384
HLD	39	0	4	384
TAP	40	0	6
STR	40	192	5
SCR	40	192	5	96	192	2
STR	41	192	2
SCL	41	192	2	96	192	5
TAP	42	192	3
TAP	42	192	4
HLD	43	0	5	192
HLD	43	192	2	192
HLD	44	0	4	192
TAP	44	192	3
TAP	44	288	2
TAP	44	288	5
TAP	45	0	3
STR	45	0	4
SCR	45	0	4	96	96	7
STR	45	192	0
SCR	45	192	0	96	96	3
STR	46	0	4
SCR	46	0	4	96	96	7
TAP	46	192	0
TAP	46	288	0
STR	47	0	5
SI_	47	0	5	96	96	0
STR	47	192	1
SI_	47	192	1	96	96	4
HLD	48	0	7	192
TAP	48	192	0
TAP	48	288	2
TAP	48	288	5
STR	49	0	1
SCL	49	0	1	96	96	6
TAP	49	0	4
TAP	49	288	4
TAP	49	288	5
TAP	50	0	3
STR	50	0	6
SCR	50	0	6	96	96	1
TAP	50	288	2
TAP	50	288	3
TAP	51	0	1
TAP	51	0	4
TAP	51	96	5
TAP	51	192	6
TAP	51	288	7
TAP	52	0	0
TAP	52	0	5
TAP	52	96	1
TAP	52	192	2
TAP	52	288	3
HLD	53	0	6	72
HLD	53	72	4	72
HLD	53	144	3	72
HLD	53	216	1	72
TAP	53	288	6
HLD	54	0	1	72
HLD	54	72	3	72
HLD	54	144	4	72
HLD	54	216	6	72
TAP	54	288	1
HLD	55	0	1	288
HLD	55	0	6	288
STR	56	0	7
SI_	56	0	7	96	96	3
STR	56	288	0
SCR	56	288	0	96	192	7
STR	57	288	7
SCL	57	288	7	96	192	0
STR	58	288	1
SI_	58	288	1	96	96	4
TAP	58	288	7
STR	59	96	6
SI_	59	96	6	96	96	3
STR	59	288	1
SCL	59	288	1	96	96	6
TAP	60	192	3
TAP	60	192	4
TAP	60	288	0
STR	60	288	6
SI_	60	288	6	96	96	3
STR	61	96	1
SI_	61	96	1	96	96	4
STR	61	288	6
SCR	61	288	6	96	96	1
TAP	62	192	3
TAP	62	192	4
TAP	62	288	2
TAP	62	288	5
TAP	63	0	6
TAP	63	0	7
TAP	63	96	0
TAP	63	96	5
TAP	63	192	1
TAP	63	192	4
TAP	63	288	2
TAP	63	288	3
HLD	64	0	1	672
HLD	65	0	6	288
HLD	66	0	7	672
HLD	67	0	0	288
TAP	68	0	0
TAP	68	0	7
TAP	68	48	1
TAP	68	48	6
BRK	68	96	2
BRK	68	96	5
TAP	68	192	4
HLD	68	192	6	96
TAP	68	288	0
HLD	69	0	1	96
TAP	69	0	3
TAP	69	96	7
HLD	69	192	7	288
TAP	69	288	4
TAP	70	0	2
TAP	70	96	0
HLD	70	192	1	96
TAP	70	192	3
TAP	70	288	7
TAP	71	0	4
HLD	71	0	6	96
TAP	71	96	0
STR	71	192	0
SCR	71	192	0	96	96	3
STR	71	192	7
SCL	71	192	7	96	96	4
TAP	72	96	1
TAP	72	96	6
TAP	72	192	4
HLD	72	192	5	96
TAP	72	288	7
HLD	73	0	2	96
TAP	73	0	3
TAP	73	96	0
TAP	73	192	6
TAP	73	192	7
TAP	73	288	4
TAP	73	288	5
TAP	74	0	3
TAP	74	0	6
STR	74	96	1
SI_	74	96	1	96	96	6
TAP	74	96	4
STR	74	288	5
SI_	74	288	5	96	96	2
HLD	75	96	0	96
BRK	75	192	7
TAP	76	0	3
TAP	76	0	4
TAP	76	96	1
TAP	76	96	6
HLD	76	192	2	96
TAP	76	192	3
TAP	76	288	0
TAP	77	0	4
HLD	77	0	5	96
TAP	77	96	7
TAP	77	192	0
TAP	77	192	1
TAP	77	288	2
TAP	77	288	3
TAP	78	0	1
TAP	78	0	4
STR	78	96	5
SCR	78	96	5	96	192	2
STR	79	96	1
SI_	79	96	1	96	96	5
HLD	80	0	6	480
HLD	80	192	1	288
HLD	81	192	5	72
HLD	81	264	7	72
HLD	81	336	0	72
HLD	82	24	2	72
STR	82	96	5
SI_	82	96	5	96	96	2
BRK	82	360	1
BRK	82	360	6

T_REC_TAP	193
T_REC_BRK	5
T_REC_XTP	0
T_REC_HLD	67
T_REC_XHO	0
T_REC_STR	41
T_REC_BST	0
T_REC_XST	0
T_REC_TTP	0
T_REC_THO	0
T_REC_SLD	41
T_REC_ALL	347
T_NUM_TAP	234
T_NUM_BRK	5
T_NUM_HLD	67
T_NUM_SLD	41
T_NUM_ALL	347
T_JUDGE_TAP	239
T_JUDGE_HLD	260
T_JUDGE_SLD	41
T_JUDGE_ALL	540
TTM_EACHPAIRS	87
TTM_SCR_TAP	117000
TTM_SCR_BRK	13000
TTM_SCR_HLD	67000
TTM_SCR_SLD	61500
TTM_SCR_ALL	258500
TTM_SCR_S	250300
TTM_SCR_SS	258000
TTM_RAT_ACV	10019

