VERSION	0.00.00	1.03.00
FES_MODE	0
BPM_DEF	140.000	140.000	140.000	140.000
MET_DEF	4	4
RESOLUTION	384
CLK_DEF	384
COMPATIBLE_CODE	MA2

BPM	0	0	140.000
MET	0	0	4	4
MET	68	0	4	2
MET	68	192	4	4

STR	2	0	3
SCL	2	0	3	96	288	6
TAP	2	0	4
TAP	3	192	4
TAP	3	192	5
STR	4	0	3
SI_	4	0	3	96	144	0
STR	4	0	4
SI_	4	0	4	96	144	7
BST	5	0	0
SCR	5	0	0	96	144	3
BST	5	0	7
SCL	5	0	7	96	144	4
HLD	6	0	5	192
HLD	6	192	4	192
HLD	7	0	3	192
TAP	7	192	2
HLD	8	0	1	192
HLD	8	0	4	192
STR	9	0	2
SI_	9	0	2	96	144	7
STR	9	0	3
SI_	9	0	3	96	144	6
TAP	10	0	5
TAP	10	96	6
TAP	10	192	7
TAP	10	288	0
TAP	11	0	7
TAP	11	96	0
TAP	11	192	1
TAP	11	192	6
HLD	12	0	2	96
TAP	12	96	3
HLD	12	192	5	96
TAP	12	288	4
TAP	13	0	3
TAP	13	0	6
TAP	13	192	2
TAP	13	192	5
TAP	13	288	3
TAP	13	288	4
HLD	14	0	2	96
HLD	14	0	3	96
HLD	14	192	4	96
HLD	14	192	5	96
BRK	15	0	2
BRK	15	0	3
BRK	15	96	4
BRK	15	96	5
BRK	15	192	3
BRK	15	192	6
TAP	16	0	3
TAP	16	0	4
TAP	16	96	5
TAP	16	192	3
TAP	16	192	4
STR	16	288	2
SCL	16	288	2	96	288	5
STR	18	0	3
SI_	18	0	3	96	144	0
STR	18	0	4
SI_	18	0	4	96	144	7
TAP	19	0	1
TAP	19	96	1
TAP	19	192	0
TAP	19	192	1
TAP	20	0	2
TAP	20	96	2
TAP	20	192	1
TAP	20	192	3
TAP	21	0	6
TAP	21	96	6
TAP	21	192	7
TAP	21	288	7
TAP	22	0	0
TAP	22	96	0
TAP	22	192	1
TAP	22	192	6
TAP	23	0	2
TAP	23	96	3
TAP	23	192	2
TAP	23	192	3
TAP	24	0	5
TAP	24	96	4
TAP	24	192	4
TAP	24	192	5
TAP	25	0	2
TAP	25	96	1
TAP	25	192	0
STR	25	288	7
SCL	25	288	7	96	288	3
TAP	27	0	2
TAP	27	96	1
TAP	27	192	0
TAP	27	192	7
TAP	28	0	0
TAP	28	0	7
TAP	28	96	1
TAP	28	96	6
TAP	28	192	2
TAP	28	192	5
TAP	28	288	3
TAP	28	288	4
TAP	29	0	5
TAP	29	96	4
TAP	29	96	5
TAP	29	192	3
TAP	29	192	6
TAP	30	0	2
TAP	30	96	2
TAP	30	96	3
TAP	30	192	1
TAP	30	192	4
TAP	31	0	2
TAP	31	96	3
TAP	31	192	4
TAP	31	288	5
TAP	32	0	4
TAP	32	0	5
TAP	32	96	3
TAP	32	96	4
TAP	32	192	2
TAP	32	192	5
TAP	33	0	1
TAP	33	96	0
TAP	33	96	1
TAP	33	192	2
TAP	33	192	7
HLD	34	0	0	96
HLD	34	0	7	96
BRK	34	192	1
BRK	34	192	6
STR	35	0	2
SUR	35	0	2	96	192	0
STR	36	0	6
SUR	36	0	6	96	192	4
HLD	37	0	2	192
HLD	37	192	3	192
HLD	38	0	4	192
TAP	38	192	5
HLD	39	0	6	192
HLD	39	192	5	192
HLD	40	0	4	192
TAP	40	192	3
STR	41	0	2
SI_	41	0	2	96	144	7
STR	41	0	3
SI_	41	0	3	96	144	6
STR	42	0	4
SI_	42	0	4	96	144	1
STR	42	0	5
SI_	42	0	5	96	144	0
TAP	43	0	7
TAP	43	96	7
TAP	43	192	0
TAP	43	288	0
TAP	44	0	7
TAP	44	96	0
TAP	44	96	6
TAP	44	192	1
TAP	44	192	5
HLD	45	0	2	192
TAP	45	96	4
TAP	45	192	3
HLD	46	0	5	192
TAP	46	96	3
TAP	46	192	4
HLD	47	0	1	192
TAP	47	96	3
TAP	47	192	2
HLD	48	0	6	192
TAP	48	96	4
TAP	48	192	5
HLD	49	0	1	192
TAP	49	96	7
TAP	49	192	0
HLD	50	0	6	192
TAP	50	96	0
TAP	50	192	7
TAP	51	0	5
TAP	51	96	5
TAP	51	192	4
TAP	51	192	5
TAP	51	288	3
TAP	51	288	4
HLD	52	0	2	192
TAP	52	0	3
HLD	52	192	3	192
STR	53	0	2
SI_	53	0	2	96	144	7
STR	54	0	6
SI_	54	0	6	96	144	3
STR	55	0	2
SCL	55	0	2	96	480	4
HLD	57	0	3	192
HLD	57	0	4	192
BRK	57	288	2
BRK	57	288	5
TAP	58	0	3
TAP	58	0	4
TAP	58	96	2
TAP	58	96	5
TAP	58	192	1
TAP	58	192	6
BRK	58	288	0
BRK	58	288	7
TAP	59	0	1
TAP	59	96	0
TAP	59	192	6
TAP	59	192	7
TAP	59	288	6
TAP	59	288	7
TAP	60	0	0
TAP	60	96	1
TAP	60	192	2
TAP	60	192	7
TAP	61	0	0
TAP	61	96	1
TAP	61	192	2
TAP	61	192	3
TAP	61	288	1
TAP	61	288	4
TAP	62	0	5
TAP	62	96	5
TAP	62	192	4
TAP	62	192	6
HLD	63	0	1	96
HLD	63	0	3	96
HLD	63	192	4	96
HLD	63	192	6	96
TAP	64	0	3
STR	64	0	4
SCR	64	0	4	96	144	7
STR	65	0	0
SCR	65	0	0	96	144	3
TAP	65	0	7
BST	66	0	3
SXR	66	0	3	96	480	0
BST	66	0	4
SXL	66	0	4	96	480	7
BRK	68	0	0
BRK	68	0	7
TAP	68	192	6
TAP	68	288	7
TAP	69	0	0
TAP	69	0	6
TAP	69	96	0
TAP	69	96	6
TAP	69	192	1
TAP	69	288	0
TAP	70	0	2
TAP	70	0	7
TAP	70	192	5
TAP	70	288	4
TAP	70	288	6
TAP	71	0	2
TAP	71	96	1
TAP	71	96	3
TAP	71	192	4
TAP	71	288	3
TAP	71	288	5
TAP	72	0	2
TAP	72	0	6
TAP	72	192	0
TAP	72	288	1
TAP	73	0	2
TAP	73	0	3
TAP	73	96	2
TAP	73	96	3
TAP	73	192	4
TAP	73	192	5
TAP	73	288	3
TAP	73	288	6
TAP	74	0	2
TAP	74	0	7
HLD	74	192	1	96
HLD	74	192	3	96
HLD	75	0	4	96
HLD	75	0	6	96
TAP	75	192	7
TAP	75	288	0
BRK	76	0	1
BRK	76	0	6
TAP	76	192	3
TAP	76	192	4
TAP	76	288	2
TAP	76	288	3
TAP	77	0	3
TAP	77	0	4
TAP	77	96	4
TAP	77	96	5
BRK	77	192	3
BRK	77	192	4
BRK	77	288	2
BRK	77	288	5
BRK	78	0	1
BRK	78	0	6
STR	78	192	0
SCL	78	192	0	96	144	5
STR	78	192	1
SCR	78	192	1	96	144	4
STR	79	192	6
SCL	79	192	6	96	144	3
STR	79	192	7
SCR	79	192	7	96	144	2
TAP	80	192	4
TAP	80	192	5
TAP	80	288	3
TAP	80	288	4
TAP	81	0	2
TAP	81	0	3
TAP	81	96	1
TAP	81	96	4
TAP	81	192	2
TAP	81	192	3
TAP	81	288	3
TAP	81	288	4
TAP	82	0	4
TAP	82	0	5
TAP	82	96	3
TAP	82	96	6
HLD	82	192	0	168
HLD	82	192	7	168

T_REC_TAP	206
T_REC_BRK	22
T_REC_XTP	0
T_REC_HLD	39
T_REC_XHO	0
T_REC_STR	24
T_REC_BST	4
T_REC_XST	0
T_REC_TTP	0
T_REC_THO	0
T_REC_SLD	28
T_REC_ALL	323
T_NUM_TAP	230
T_NUM_BRK	26
T_NUM_HLD	39
T_NUM_SLD	28
T_NUM_ALL	323
T_JUDGE_TAP	256
T_JUDGE_HLD	124
T_JUDGE_SLD	28
T_JUDGE_ALL	408
TTM_EACHPAIRS	97
TTM_SCR_TAP	115000
TTM_SCR_BRK	67600
TTM_SCR_HLD	39000
TTM_SCR_SLD	42000
TTM_SCR_ALL	263600
TTM_SCR_S	253200
TTM_SCR_SS	261000
TTM_RAT_ACV	10099

