VERSION	0.00.00	1.03.00
FES_MODE	0
BPM_DEF	140.000	140.000	140.000	140.000
MET_DEF	4	4
RESOLUTION	384
CLK_DEF	384
COMPATIBLE_CODE	MA2

BPM	0	0	140.000
MET	0	0	4	4
MET	68	0	4	2
MET	68	192	4	4

TAP	2	0	7
TAP	2	192	7
TAP	3	0	6
TAP	3	192	6
TAP	4	0	5
TAP	4	192	5
TAP	5	0	4
TAP	5	192	3
TAP	5	192	4
TAP	6	0	3
TAP	6	192	3
TAP	7	0	2
TAP	7	192	2
TAP	8	0	1
TAP	8	192	1
TAP	9	0	0
TAP	9	192	0
TAP	9	192	7
BRK	10	0	0
TAP	10	96	0
TAP	10	192	0
TAP	11	0	1
TAP	11	96	1
TAP	11	192	1
TAP	12	0	2
TAP	12	96	2
TAP	12	192	2
TAP	13	0	3
TAP	13	96	4
TAP	13	192	3
TAP	14	0	4
TAP	14	96	4
TAP	14	192	4
TAP	15	0	5
TAP	15	96	5
TAP	15	192	5
TAP	16	0	6
TAP	16	96	6
TAP	16	192	6
HLD	17	0	0	384
HLD	17	0	7	384
TAP	19	0	6
TAP	19	192	6
TAP	20	0	5
TAP	20	96	5
TAP	20	192	5
TAP	21	0	4
TAP	21	192	4
HLD	22	0	3	192
TAP	23	0	2
TAP	23	192	2
TAP	24	0	1
TAP	24	96	1
TAP	24	192	1
TAP	25	0	0
TAP	25	192	0
HLD	26	0	7	192
TAP	27	0	0
TAP	27	96	0
TAP	27	192	0
TAP	28	0	1
TAP	28	96	1
TAP	28	192	1
TAP	29	0	2
TAP	29	96	2
TAP	29	192	2
HLD	30	0	3	192
TAP	31	0	4
TAP	31	96	4
TAP	31	192	4
TAP	32	0	5
TAP	32	96	5
TAP	32	192	5
TAP	33	0	6
TAP	33	96	6
TAP	33	192	6
HLD	34	0	7	192
TAP	35	0	0
TAP	35	96	0
TAP	35	192	0
TAP	36	0	0
TAP	36	0	7
TAP	36	96	0
TAP	36	96	7
TAP	36	192	0
TAP	36	192	7
STR	37	0	6
SI_	37	0	6	96	288	2
STR	39	0	1
SI_	39	0	1	96	288	5
STR	41	0	6
SI_	41	0	6	96	288	3
STR	43	0	1
SI_	43	0	1	96	288	4
HLD	45	0	6	192
HLD	46	0	5	192
HLD	47	0	4	192
TAP	48	0	3
TAP	48	96	3
TAP	48	192	3
TAP	48	192	4
HLD	49	0	2	192
HLD	50	0	1	192
HLD	51	0	0	192
TAP	52	0	7
TAP	52	96	7
TAP	52	192	0
TAP	52	192	7
TAP	53	0	6
TAP	53	96	6
TAP	53	192	6
TAP	54	0	7
TAP	54	96	7
TAP	54	192	7
TAP	55	0	0
TAP	55	96	0
TAP	55	192	0
TAP	56	0	1
TAP	56	96	1
TAP	56	192	1
BRK	57	0	0
BRK	58	0	7
TAP	59	0	0
TAP	59	96	0
TAP	59	192	0
TAP	60	0	1
TAP	60	96	1
TAP	60	192	1
HLD	61	0	2	192
HLD	62	0	3	192
TAP	63	0	4
TAP	63	96	4
TAP	63	192	4
STR	64	0	4
SI_	64	0	4	96	288	7
TAP	66	0	0
TAP	66	96	0
TAP	66	192	0
TAP	67	0	0
TAP	67	0	7
TAP	67	96	0
TAP	67	96	7
TAP	67	192	0
TAP	67	192	7
TAP	68	192	0
TAP	68	288	0
TAP	69	0	1
TAP	69	96	1
TAP	69	192	2
TAP	69	288	2
TAP	70	0	2
TAP	70	0	3
TAP	70	192	4
TAP	70	288	4
TAP	71	0	5
TAP	71	96	5
TAP	71	192	6
TAP	71	288	6
TAP	72	0	6
TAP	72	0	7
TAP	72	192	7
TAP	72	288	7
TAP	73	0	6
TAP	73	96	6
TAP	73	192	5
TAP	73	288	5
TAP	74	0	4
TAP	74	0	5
TAP	74	192	3
TAP	74	288	3
TAP	75	0	2
TAP	75	96	2
TAP	75	192	1
TAP	75	288	1
TAP	76	0	0
TAP	76	0	1
TAP	76	192	6
TAP	76	288	6
TAP	77	0	6
TAP	77	0	7
TAP	77	192	1
TAP	77	288	1
TAP	78	0	0
TAP	78	0	1
TAP	78	192	6
TAP	78	288	6
TAP	79	0	6
TAP	79	0	7
TAP	79	192	1
TAP	79	288	1
TAP	80	0	0
TAP	80	0	1
TAP	80	192	0
TAP	80	192	7
TAP	80	288	0
TAP	80	288	7
TAP	81	0	0
TAP	81	0	7
HLD	81	192	0	576
HLD	81	192	7	576

T_REC_TAP	171
T_REC_BRK	3
T_REC_XTP	0
T_REC_HLD	16
T_REC_XHO	0
T_REC_STR	5
T_REC_BST	0
T_REC_XST	0
T_REC_TTP	0
T_REC_THO	0
T_REC_SLD	5
T_REC_ALL	200
T_NUM_TAP	176
T_NUM_BRK	3
T_NUM_HLD	16
T_NUM_SLD	5
T_NUM_ALL	200
T_JUDGE_TAP	179
T_JUDGE_HLD	88
T_JUDGE_SLD	5
T_JUDGE_ALL	272
TTM_EACHPAIRS	23
TTM_SCR_TAP	88000
TTM_SCR_BRK	7800
TTM_SCR_HLD	16000
TTM_SCR_SLD	7500
TTM_SCR_ALL	119300
TTM_SCR_S	115450
TTM_SCR_SS	119000
TTM_RAT_ACV	10025

