VERSION	0.00.00	1.03.00
FES_MODE	0
BPM_DEF	180.000	 90.000	180.000	 90.000
MET_DEF	4	4
RESOLUTION	384
CLK_DEF	384
COMPATIBLE_CODE	MA2

BPM	0	0	180.000
BPM	1	0	 90.000

STR	1	0	1
SCL	1	0	1	96	240	6
TAP	1	144	5
TAP	1	192	5
BRK	1	288	1
STR	2	0	6
SCR	2	0	6	96	240	1
TAP	2	144	3
TAP	2	192	3
TAP	2	336	7
TAP	3	0	6
HLD	3	48	2	144
STR	3	192	4
SCR	3	192	4	96	48	7
TAP	3	240	5
STR	3	288	3
SCL	3	288	3	96	384	0
TAP	3	336	2
TAP	4	144	4
TAP	4	192	4
TAP	4	264	5
TAP	4	336	2
BRK	5	0	7
TAP	5	48	5
TAP	5	96	4
TAP	5	144	3
STR	5	192	2
SLR	5	192	2	96	48	6
STR	5	240	2
SLL	5	240	2	96	144	6
STR	6	48	4
SXL	6	48	4	96	48	4
STR	6	96	4
SXR	6	96	4	96	192	4
TAP	7	48	5
TAP	7	96	4
TAP	7	144	3
TAP	7	192	2
STR	7	240	5
SCL	7	240	5	96	48	2
STR	7	288	1
SCL	7	288	1	96	384	6
STR	9	0	3
SI_	9	0	3	96	336	0
TAP	9	48	2
STR	9	96	4
SI_	9	96	4	96	48	7
TAP	9	144	5
TAP	9	288	7
STR	10	0	6
SUL	10	0	6	96	96	2
TAP	10	48	7
STR	10	96	1
SUR	10	96	1	96	96	5
TAP	10	144	0
BRK	10	240	7
STR	10	288	7
SI_	10	288	7	96	192	4
TAP	10	336	0
TAP	11	0	0
STR	11	96	0
SI_	11	96	0	96	48	3
STR	11	288	7
SCL	11	288	7	96	288	1
SLL	11	288	7	96	192	3
TAP	11	336	0
HLD	13	0	0	96
HLD	13	48	7	96
HLD	13	192	0	96
HLD	13	240	7	96
HLD	14	0	1	96
HLD	14	48	6	96
HLD	14	192	2	96
HLD	14	240	5	96
HLD	15	0	3	48
HLD	15	24	4	48
HLD	15	96	3	48
HLD	15	120	4	48
HLD	15	192	2	48
HLD	15	216	5	48
HLD	15	288	1	48
HLD	15	312	6	48
HLD	16	0	0	24
HLD	16	12	7	24
HLD	16	48	0	24
HLD	16	60	7	24
HLD	16	96	0	24
HLD	16	108	7	24
HLD	16	144	0	24
HLD	16	156	7	24
BRK	16	192	0
STR	16	336	3
SCL	16	336	3	96	48	0
TAP	16	360	5
TAP	17	0	7
STR	17	96	4
SI_	17	96	4	96	24	7
STR	17	120	4
SI_	17	120	4	96	24	1
TAP	17	144	0
TAP	17	168	0
TAP	17	264	7
STR	17	288	0
SCL	17	288	0	96	96	1
TAP	17	336	2
STR	18	96	7
SCL	18	96	7	96	96	4
TAP	18	144	5
TAP	18	168	5
STR	18	192	0
SCR	18	192	0	96	96	3
TAP	18	240	2
TAP	18	264	2
TAP	18	336	5
TAP	18	360	5
TAP	19	0	7
STR	19	96	4
SI_	19	96	4	96	24	6
STR	19	120	4
SCL	19	120	4	96	48	0
TAP	19	144	7
TAP	19	168	7
TAP	19	264	7
TAP	19	288	7
STR	19	336	3
SI_	19	336	3	96	48	0
TAP	20	0	0
TAP	20	36	2
STR	20	48	4
SI_	20	48	4	96	48	7
TAP	20	96	7
TAP	20	132	5
TAP	20	144	3
BRK	20	192	0
BRK	20	240	0
TAP	20	288	7
STR	20	336	7
SV_	20	336	7	96	48	1
TAP	21	0	0
STR	21	48	7
SI_	21	48	7	96	48	3
TAP	21	96	2
STR	21	144	7
SV_	21	144	7	96	48	5
TAP	21	192	6
STR	21	240	7
SI_	21	240	7	96	48	3
STR	21	288	4
SXL	21	288	4	96	96	1
STR	22	96	0
SXR	22	96	0	96	96	0
TAP	22	144	4
TAP	22	168	4
STR	22	192	0
SXL	22	192	0	96	96	0
TAP	22	240	4
TAP	22	264	4
STR	22	336	4
SV_	22	336	4	96	48	6
TAP	23	0	5
STR	23	48	4
SI_	23	48	4	96	48	0
TAP	23	96	7
STR	23	144	4
SV_	23	144	4	96	48	2
TAP	23	192	3
STR	23	240	4
SI_	23	240	4	96	48	0
STR	23	336	1
SI_	23	336	1	96	48	6
TAP	24	0	3
STR	24	48	5
SI_	24	48	5	96	48	2
TAP	24	96	7
TAP	24	144	1
STR	24	192	3
SLL	24	192	3	96	96	4
SLR	24	192	3	96	96	7
TAP	24	240	6
TAP	24	264	1
TAP	25	48	2
TAP	25	96	3
TAP	25	144	4
STR	25	192	5
SLL	25	192	5	96	48	1
STR	25	240	5
SLR	25	240	5	96	144	1
STR	26	48	3
SXR	26	48	3	96	48	3
STR	26	96	3
SXL	26	96	3	96	192	3
HLD	26	288	0	24
HLD	26	336	0	24
TAP	27	48	2
TAP	27	96	3
TAP	27	144	4
TAP	27	192	5
STR	27	240	2
SCR	27	240	2	96	48	5
STR	27	288	6
SCR	27	288	6	96	384	1
STR	29	0	4
SI_	29	0	4	96	336	7
TAP	29	48	5
STR	29	96	3
SI_	29	96	3	96	48	0
TAP	29	144	2
TAP	29	288	0
STR	30	0	1
SUR	30	0	1	96	96	5
TAP	30	48	0
STR	30	96	6
SUL	30	96	6	96	96	2
TAP	30	144	7
STR	30	288	0
SI_	30	288	0	96	192	3
TAP	30	336	2
TAP	31	0	7
STR	31	96	7
SI_	31	96	7	96	48	4
STR	31	288	0
SCR	31	288	0	96	144	3
SCR	31	288	0	96	288	6
TAP	31	336	7
STR	33	0	4
SI_	33	0	4	96	24	6
STR	33	48	4
SXR	33	48	4	96	48	3
STR	33	192	7
SI_	33	192	7	96	24	5
STR	33	240	7
SXL	33	240	7	96	48	0
STR	34	0	3
SI_	34	0	3	96	24	5
STR	34	48	3
SXR	34	48	3	96	48	2
STR	34	192	7
SXR	34	192	7	96	48	6
TAP	34	216	7
STR	34	240	7
SXL	34	240	7	96	48	0
TAP	35	0	5
TAP	35	24	5
STR	35	48	4
SI_	35	48	4	96	24	0
STR	35	72	4
SI_	35	72	4	96	24	6
TAP	35	96	7
TAP	35	120	7
TAP	35	192	2
TAP	35	216	2
STR	35	240	3
SI_	35	240	3	96	24	7
STR	35	264	3
SI_	35	264	3	96	24	1
TAP	35	288	0
TAP	35	312	0
TAP	36	0	0
TAP	36	24	0
STR	36	48	7
SI_	36	48	7	96	24	3
STR	36	72	7
SI_	36	72	7	96	24	5
TAP	36	96	4
TAP	36	120	4
BRK	36	192	0
STR	37	0	0
SI_	37	0	0	96	48	2
TAP	37	36	4
TAP	37	72	3
STR	37	96	7
SI_	37	96	7	96	48	5
TAP	37	132	3
TAP	37	168	4
STR	37	192	0
SF_	37	192	0	96	36	4
STR	37	228	4
SF_	37	228	4	96	36	0
TAP	37	264	3
STR	38	0	2
SV_	38	0	2	96	48	0
HLD	38	48	3	24
STR	38	96	5
SV_	38	96	5	96	48	7
HLD	38	144	4	24
TAP	38	192	3
TAP	38	216	2
TAP	38	240	1
TAP	38	264	0
TAP	38	288	7
TAP	38	312	6
STR	38	336	5
SXR	38	336	5	96	96	2
TAP	38	360	4
TAP	39	0	3
TAP	39	48	6
STR	39	96	1
SI_	39	96	1	96	48	6
TAP	39	144	0
STR	39	192	5
SI_	39	192	5	96	48	2
TAP	39	240	4
STR	39	288	1
SSR	39	288	1	96	96	5
TAP	39	336	0
STR	40	0	5
SSR	40	0	5	96	96	1
TAP	40	48	4
STR	40	96	1
SSR	40	96	1	96	96	5
TAP	40	144	0
TAP	40	192	5
TAP	40	240	4
TAP	40	288	1
STR	41	0	4
SI_	41	0	4	96	48	6
TAP	41	36	0
TAP	41	72	7
STR	41	96	3
SI_	41	96	3	96	48	1
TAP	41	132	7
TAP	41	168	0
STR	41	192	4
SF_	41	192	4	96	36	0
STR	41	228	0
SF_	41	228	0	96	36	4
TAP	41	264	7
STR	42	0	5
SV_	42	0	5	96	48	7
HLD	42	48	6	24
STR	42	96	2
SV_	42	96	2	96	48	0
HLD	42	144	1	24
TAP	42	192	4
TAP	42	216	5
TAP	42	240	6
TAP	42	264	7
TAP	42	288	0
TAP	42	312	1
STR	42	336	2
SXR	42	336	2	96	96	4
TAP	42	360	3
TAP	43	0	4
TAP	43	48	6
STR	43	96	5
SI_	43	96	5	96	48	0
TAP	43	144	7
STR	43	192	1
SI_	43	192	1	96	48	4
STR	43	240	3
SI_	43	240	3	96	48	0
STR	43	288	5
SCR	43	288	5	96	192	2
TAP	44	144	3
TAP	44	192	3
STR	44	288	0
SCR	44	288	0	96	96	2
SCR	44	288	0	96	144	3
SCR	44	288	0	96	192	4
SCR	44	288	0	96	240	5
SCR	44	288	0	96	288	6
SCR	44	288	0	96	336	7
TAP	44	336	7
STR	45	0	7
SUR	45	0	7	96	576	0
STR	47	0	6
SCR	47	0	6	96	240	1
TAP	47	144	3
TAP	47	192	3
STR	48	0	1
SCL	48	0	1	96	240	6
TAP	48	144	4
TAP	48	192	4
BRK	48	264	1
TAP	48	336	0
TAP	49	0	1
HLD	49	48	5	144
BRK	49	96	0
STR	49	192	3
SCL	49	192	3	96	48	0
TAP	49	240	0
STR	49	288	4
SCR	49	288	4	96	192	7
TAP	49	336	7
TAP	50	0	0
TAP	50	144	0
TAP	50	162	0
TAP	50	180	0
TAP	50	198	0
TAP	50	216	0
TAP	50	246	7
TAP	50	264	7
TAP	50	282	7
STR	50	300	7
SI_	50	300	7	96	12	3
TAP	50	318	7
TAP	50	336	7
BRK	51	0	7

T_REC_TAP	152
T_REC_BRK	10
T_REC_XTP	0
T_REC_HLD	32
T_REC_XHO	0
T_REC_STR	98
T_REC_BST	0
T_REC_XST	0
T_REC_TTP	0
T_REC_THO	0
T_REC_SLD	106
T_REC_ALL	398
T_NUM_TAP	250
T_NUM_BRK	10
T_NUM_HLD	32
T_NUM_SLD	106
T_NUM_ALL	398
T_JUDGE_TAP	260
T_JUDGE_HLD	74
T_JUDGE_SLD	106
T_JUDGE_ALL	440
TTM_EACHPAIRS	0
TTM_SCR_TAP	125000
TTM_SCR_BRK	26000
TTM_SCR_HLD	32000
TTM_SCR_SLD	159000
TTM_SCR_ALL	342000
TTM_SCR_S	330800
TTM_SCR_SS	341000
TTM_RAT_ACV	10029

