VERSION	0.00.00	1.03.00
FES_MODE	0
BPM_DEF	180.000	180.000	180.000	180.000
MET_DEF	4	4
RESOLUTION	384
CLK_DEF	384
COMPATIBLE_CODE	MA2

BPM	0	0	180.000

HLD	1	0	4	192
TAP	1	0	5
TAP	1	64	6
TAP	1	128	7
STR	1	192	0
SCR	1	192	0	96	288	6
TAP	2	0	7
TAP	2	96	0
BRK	2	192	1
TAP	2	288	2
TAP	3	0	2
HLD	3	0	3	192
TAP	3	64	1
TAP	3	128	0
STR	3	192	7
SCL	3	192	7	96	288	1
TAP	4	0	0
TAP	4	96	7
TAP	4	192	6
TAP	4	288	1
TAP	4	288	5
STR	5	0	3
SLL	5	0	3	96	144	7
STR	5	0	7
SLL	5	0	7	96	144	3
TAP	5	96	3
TAP	5	96	7
HLD	6	0	0	256
HLD	6	0	4	96
TAP	6	192	7
TAP	6	224	6
TAP	6	256	5
TAP	6	288	1
TAP	6	320	2
TAP	6	352	3
BST	7	0	0
SXR	7	0	0	96	480	5
BST	7	0	4
SXR	7	0	4	96	480	1
STR	9	0	6
SCR	9	0	6	96	240	1
TAP	9	96	5
TAP	9	192	4
TAP	9	288	3
STR	10	0	2
SCR	10	0	2	96	240	5
TAP	10	96	1
TAP	10	192	0
TAP	10	288	7
HLD	11	0	6	288
TAP	11	96	5
TAP	11	192	4
STR	11	288	3
SXL	11	288	3	96	240	4
SXR	11	288	3	96	240	2
TAP	13	0	0
TAP	13	0	6
TAP	13	96	7
TAP	13	144	7
HLD	13	192	7	96
HLD	13	288	0	96
HLD	14	0	1	96
TAP	14	96	2
HLD	14	144	2	48
TAP	14	192	3
HLD	14	240	3	48
TAP	14	288	4
HLD	14	336	4	48
STR	15	0	5
SCR	15	0	5	96	240	1
TAP	15	96	3
TAP	15	288	3
STR	16	0	2
SCL	16	0	2	96	240	6
TAP	16	96	4
TAP	16	288	4
HLD	17	0	5	384
TAP	17	96	3
TAP	17	144	3
TAP	17	192	3
TAP	17	288	1
HLD	18	0	7	96
HLD	18	96	4	96
HLD	18	192	0	96
HLD	18	288	3	96
HLD	19	0	1	384
TAP	19	96	3
TAP	19	144	3
TAP	19	192	3
TAP	19	288	7
TAP	20	0	5
BRK	20	96	3
BRK	20	96	7
TAP	20	192	2
TAP	20	192	6
TAP	20	240	1
TAP	20	240	5
TAP	20	288	0
TAP	20	288	4
STR	21	0	0
SCR	21	0	0	96	120	3
STR	21	0	4
SCR	21	0	4	96	120	7
TAP	21	48	0
TAP	21	48	4
TAP	21	96	0
TAP	21	96	4
TAP	21	288	0
TAP	21	288	4
HLD	22	0	2	96
HLD	22	0	6	96
TAP	22	192	0
TAP	22	192	5
TAP	22	288	2
TAP	22	288	7
STR	23	0	1
SI_	23	0	1	96	480	5
TAP	23	0	6
TAP	23	96	0
TAP	23	288	2
TAP	24	96	6
TAP	24	288	4
STR	25	0	5
SI_	25	0	5	96	48	0
HLD	25	48	5	144
STR	25	192	1
SI_	25	192	1	96	48	4
HLD	25	240	1	144
STR	26	0	3
SI_	26	0	3	96	48	6
HLD	26	48	3	144
STR	26	192	7
SI_	26	192	7	96	48	2
HLD	26	240	7	144
STR	27	0	5
SCR	27	0	5	96	48	0
HLD	27	48	5	144
STR	27	192	1
SCR	27	192	1	96	48	4
HLD	27	240	1	144
STR	28	0	3
SCR	28	0	3	96	48	6
HLD	28	48	3	144
STR	28	192	7
SCR	28	192	7	96	48	2
HLD	28	240	7	144
TAP	29	0	5
TAP	29	48	5
TAP	29	96	4
TAP	29	96	6
TAP	29	144	5
TAP	29	192	3
TAP	29	192	7
TAP	29	240	5
TAP	29	288	0
TAP	29	288	2
TAP	29	336	5
TAP	30	0	2
TAP	30	0	5
TAP	30	48	2
TAP	30	96	1
TAP	30	96	3
TAP	30	144	2
TAP	30	192	0
TAP	30	192	4
TAP	30	240	2
TAP	30	288	5
TAP	30	288	7
TAP	30	336	2
TAP	31	0	6
TAP	31	24	7
TAP	31	48	5
TAP	31	72	0
TAP	31	96	4
TAP	31	120	1
TAP	31	144	3
TAP	31	168	2
TAP	31	192	0
TAP	31	216	1
TAP	31	240	7
TAP	31	264	2
TAP	31	288	6
TAP	31	312	3
TAP	31	336	5
TAP	31	360	4
STR	32	0	3
SLL	32	0	3	96	96	4
STR	32	0	6
SLR	32	0	6	96	96	5
BRK	32	288	0
BRK	32	288	1
BRK	32	336	6
BRK	32	336	7
BST	33	0	3
SUL	33	0	3	96	120	0
BST	33	0	4
SXL	33	0	4	96	120	7
TAP	33	288	2
TAP	33	288	5
TAP	33	336	2
TAP	33	336	5
STR	34	0	3
SXR	34	0	3	96	120	0
STR	34	0	4
SUR	34	0	4	96	120	7
TAP	34	288	0
TAP	34	288	5
TAP	34	336	0
TAP	34	336	5
TAP	35	0	6
TAP	35	16	5
TAP	35	32	4
TAP	35	48	7
TAP	35	64	0
TAP	35	80	1
TAP	35	96	5
TAP	35	112	4
TAP	35	128	3
TAP	35	144	0
TAP	35	160	1
TAP	35	176	2
BRK	35	192	3
BRK	35	192	7
STR	35	288	4
SF_	35	288	4	96	48	0
TAP	35	336	3
TAP	35	336	5
TAP	36	0	4
STR	36	96	3
SF_	36	96	3	96	48	7
TAP	36	144	2
TAP	36	144	4
TAP	36	192	3
TAP	36	288	4
TAP	36	336	3
STR	37	0	1
SXR	37	0	1	96	120	6
STR	37	0	2
SUR	37	0	2	96	120	5
TAP	37	288	4
TAP	37	288	7
TAP	37	336	4
TAP	37	336	7
STR	38	0	5
SUL	38	0	5	96	120	2
STR	38	0	6
SXL	38	0	6	96	120	1
TAP	38	288	0
TAP	38	288	3
TAP	38	336	0
TAP	38	336	3
TAP	39	0	2
TAP	39	0	6
TAP	39	32	2
TAP	39	32	6
TAP	39	64	2
TAP	39	64	6
BRK	39	96	2
BRK	39	96	6
TAP	39	192	1
TAP	39	192	5
TAP	39	224	1
TAP	39	224	5
TAP	39	256	1
TAP	39	256	5
BST	39	288	1
SCR	39	288	1	96	32	4
BST	39	288	5
SCR	39	288	5	96	32	0
STR	40	0	1
SUL	40	0	1	96	32	5
STR	40	0	5
SUL	40	0	5	96	32	1
TAP	40	96	1
TAP	40	96	5
TAP	40	192	3
TAP	40	192	7
TAP	40	240	1
TAP	40	240	5
TAP	40	288	3
TAP	40	288	7
TAP	40	336	1
TAP	40	336	5
BST	41	0	3
SI_	41	0	3	96	48	1
TAP	41	0	7
TAP	41	96	3
TAP	41	96	7
STR	41	192	3
SI_	41	192	3	96	48	0
TAP	41	192	6
TAP	41	240	6
TAP	41	288	3
TAP	41	288	5
TAP	41	336	5
STR	42	0	3
SI_	42	0	3	96	48	7
HLD	42	48	4	48
TAP	42	96	3
TAP	42	144	4
STR	42	192	3
SI_	42	192	3	96	48	0
TAP	42	192	5
TAP	42	240	5
TAP	42	288	3
TAP	42	288	6
TAP	42	336	6
TAP	43	0	1
TAP	43	16	2
TAP	43	32	3
TAP	43	48	0
TAP	43	64	7
TAP	43	80	6
TAP	43	96	2
TAP	43	112	3
TAP	43	128	4
TAP	43	144	7
TAP	43	160	6
TAP	43	176	5
BRK	43	192	0
BRK	43	192	4
STR	43	288	3
SF_	43	288	3	96	48	7
TAP	43	336	2
TAP	43	336	4
TAP	44	0	3
STR	44	96	4
SF_	44	96	4	96	48	0
TAP	44	144	3
TAP	44	144	5
TAP	44	192	4
TAP	44	288	2
TAP	44	288	6
TAP	44	336	1
TAP	44	336	5
TAP	45	0	0
STR	45	0	4
SI_	45	0	4	96	48	6
TAP	45	96	0
TAP	45	96	4
TAP	45	192	1
STR	45	192	4
SI_	45	192	4	96	48	7
TAP	45	240	1
TAP	45	288	2
TAP	45	288	4
TAP	45	336	2
STR	46	0	4
SI_	46	0	4	96	48	0
HLD	46	48	3	48
TAP	46	96	4
TAP	46	144	3
TAP	46	192	2
STR	46	192	4
SI_	46	192	4	96	48	7
TAP	46	240	2
TAP	46	288	1
TAP	46	288	4
TAP	46	336	1
TAP	47	0	0
TAP	47	0	4
TAP	47	32	0
TAP	47	32	4
TAP	47	64	0
TAP	47	64	4
BRK	47	96	0
BRK	47	96	4
TAP	47	192	2
TAP	47	192	6
TAP	47	224	2
TAP	47	224	6
TAP	47	256	2
TAP	47	256	6
BST	47	288	2
SI_	47	288	2	96	48	7
BST	47	288	6
SI_	47	288	6	96	48	3
TAP	48	0	2
TAP	48	0	6
TAP	48	96	2
TAP	48	96	6
TAP	48	144	2
TAP	48	144	6
STR	48	192	3
SI_	48	192	3	96	48	7
STR	48	192	7
SI_	48	192	7	96	48	3
TAP	48	216	2
TAP	48	216	6
TAP	48	240	1
TAP	48	240	5
TAP	48	264	0
TAP	48	264	4
STR	49	0	6
SCR	49	0	6	96	240	1
TAP	49	96	5
TAP	49	192	4
TAP	49	288	3
STR	50	0	2
SCR	50	0	2	96	240	5
TAP	50	96	1
TAP	50	192	0
TAP	50	288	7
HLD	51	0	6	288
TAP	51	96	5
TAP	51	192	4
STR	51	288	3
SXL	51	288	3	96	240	4
SXR	51	288	3	96	240	2
TAP	53	0	2
TAP	53	0	4
TAP	53	96	3
TAP	53	144	3
HLD	53	192	3	96
HLD	53	288	4	96
HLD	54	0	5	96
TAP	54	96	6
HLD	54	144	6	48
TAP	54	192	7
HLD	54	240	7	48
TAP	54	288	0
HLD	54	336	0	48
STR	55	0	1
SUR	55	0	1	96	240	7
TAP	55	96	5
TAP	55	192	6
TAP	55	288	0
STR	56	0	6
SUL	56	0	6	96	240	0
TAP	56	96	2
TAP	56	192	1
TAP	56	288	7
HLD	57	0	3	384
TAP	57	96	5
TAP	57	144	5
TAP	57	192	5
TAP	57	288	7
HLD	58	0	1	96
HLD	58	96	4	96
HLD	58	192	0	96
HLD	58	288	5	96
HLD	59	0	7	480
TAP	59	96	5
TAP	59	144	5
TAP	59	192	5
TAP	59	288	1
HLD	60	0	3	96
TAP	60	192	0
TAP	60	192	6
TAP	60	240	1
TAP	60	240	5
TAP	60	288	2
TAP	60	288	4
STR	61	0	3
SCL	61	0	3	96	120	0
STR	61	0	7
SCL	61	0	7	96	120	4
TAP	61	48	3
TAP	61	48	7
TAP	61	96	3
TAP	61	96	7
TAP	61	288	3
TAP	61	288	7
HLD	62	0	1	96
HLD	62	0	5	96
TAP	62	192	2
TAP	62	192	7
TAP	62	288	0
TAP	62	288	5
TAP	63	0	1
STR	63	0	6
SI_	63	0	6	96	480	2
TAP	63	96	3
TAP	63	192	7
TAP	63	288	3
TAP	64	96	4
TAP	64	192	0
TAP	64	240	0
TAP	64	288	1
TAP	64	312	6
TAP	64	336	1
TAP	64	360	6
TAP	65	0	3
STR	65	0	7
SI_	65	0	7	96	48	3
TAP	65	48	2
TAP	65	96	1
TAP	65	144	0
STR	65	192	7
SF_	65	192	7	96	32	3
BRK	65	288	7
TAP	66	0	3
STR	66	0	7
SI_	66	0	7	96	48	3
TAP	66	48	2
TAP	66	96	1
TAP	66	144	0
STR	66	192	7
SF_	66	192	7	96	32	3
BRK	66	288	7
TAP	67	0	3
STR	67	0	7
SI_	67	0	7	96	48	3
TAP	67	48	2
TAP	67	96	1
TAP	67	144	0
STR	67	192	7
SF_	67	192	7	96	32	3
BRK	67	288	7
TAP	68	0	2
TAP	68	0	4
HLD	68	48	3	0
HLD	68	72	3	0
HLD	68	96	3	0
HLD	68	120	3	0
HLD	68	144	3	0
HLD	68	168	3	0
STR	68	192	3
SXL	68	192	3	96	48	4
SXR	68	192	3	96	48	2
TAP	68	240	2
TAP	68	240	4
BRK	68	288	3
TAP	69	48	6
TAP	69	72	7
TAP	69	96	6
TAP	69	144	0
TAP	69	144	5
TAP	69	192	2
TAP	69	216	3
TAP	69	240	2
TAP	69	264	3
TAP	69	288	2
TAP	69	336	1
TAP	69	336	7
TAP	70	0	5
TAP	70	24	4
TAP	70	48	5
TAP	70	72	4
TAP	70	96	5
TAP	70	144	0
TAP	70	144	6
TAP	70	192	2
TAP	70	216	3
TAP	70	240	2
TAP	70	264	3
TAP	70	288	2
TAP	70	336	1
TAP	70	336	7
TAP	71	0	6
TAP	71	24	6
TAP	71	48	7
TAP	71	72	7
TAP	71	96	0
TAP	71	120	0
TAP	71	144	1
TAP	71	168	1
TAP	71	192	5
TAP	71	216	5
TAP	71	240	4
TAP	71	264	4
TAP	71	288	3
TAP	71	312	3
TAP	71	336	2
TAP	71	360	2
STR	72	0	7
SCL	72	0	7	96	96	0
TAP	72	252	0
TAP	72	252	7
TAP	72	264	1
TAP	72	264	6
TAP	72	276	2
TAP	72	276	5
BRK	72	288	3
BRK	72	288	4
STR	73	0	2
SI_	73	0	2	96	32	6
TAP	73	48	3
TAP	73	72	3
TAP	73	96	2
TAP	73	144	3
STR	73	192	3
SI_	73	192	3	96	32	7
TAP	73	240	4
TAP	73	264	4
TAP	73	288	3
TAP	73	336	4
STR	74	0	4
SI_	74	0	4	96	32	0
TAP	74	48	5
TAP	74	72	5
TAP	74	96	4
TAP	74	144	5
TAP	74	192	0
TAP	74	208	4
TAP	74	224	0
TAP	74	240	4
TAP	74	256	0
TAP	74	272	4
TAP	74	288	0
TAP	74	300	1
TAP	74	312	2
TAP	74	324	3
TAP	74	336	4
TAP	74	348	5
TAP	74	360	6
TAP	74	372	7
STR	75	0	0
SI_	75	0	0	96	64	4
HLD	75	0	4	64
TAP	75	96	0
TAP	75	96	4
TAP	75	128	5
TAP	75	160	6
HLD	75	192	3	64
STR	75	192	7
SI_	75	192	7	96	64	3
TAP	75	288	3
TAP	75	288	7
TAP	75	320	2
TAP	75	352	1
STR	76	0	0
SI_	76	0	0	96	32	3
STR	76	48	4
SI_	76	48	4	96	32	7
TAP	76	96	0
TAP	76	144	4
STR	76	192	2
SCR	76	192	2	96	48	5
SUR	76	192	2	96	48	6
TAP	76	240	1
TAP	76	288	2
BRK	77	0	0
BRK	77	0	1
TAP	77	96	1
TAP	77	128	1
TAP	77	160	1
TAP	77	192	0
TAP	77	224	0
TAP	77	256	0
TAP	77	288	7
TAP	77	320	7
TAP	77	352	7
HLD	78	0	6	64
TAP	78	96	2
TAP	78	96	6
TAP	78	128	1
TAP	78	128	5
TAP	78	160	0
TAP	78	160	4
HLD	78	192	3	64
HLD	78	192	7	64
TAP	78	288	3
TAP	78	288	7
TAP	78	320	0
TAP	78	320	4
TAP	78	352	1
TAP	78	352	5
TAP	79	0	2
STR	79	0	6
SUL	79	0	6	96	96	0
STR	79	96	0
SUL	79	96	0	96	96	2
STR	79	192	2
SUL	79	192	2	96	96	4
STR	79	288	4
SUL	79	288	4	96	96	6
TAP	80	0	6
TAP	80	48	7
TAP	80	96	0
TAP	80	144	1
HLD	80	192	2	96
TAP	80	240	1
TAP	80	256	0
TAP	80	272	7
BRK	80	288	6
STR	81	0	5
SI_	81	0	5	96	32	1
TAP	81	48	4
TAP	81	72	4
TAP	81	96	5
TAP	81	144	4
STR	81	192	4
SI_	81	192	4	96	32	0
TAP	81	240	3
TAP	81	264	3
TAP	81	288	4
TAP	81	336	3
STR	82	0	3
SI_	82	0	3	96	32	7
TAP	82	48	2
TAP	82	72	2
TAP	82	96	3
TAP	82	144	2
TAP	82	192	7
TAP	82	208	3
TAP	82	224	7
TAP	82	240	3
TAP	82	256	7
TAP	82	272	3
TAP	82	288	7
TAP	82	300	6
TAP	82	312	5
TAP	82	324	4
TAP	82	336	3
TAP	82	348	2
TAP	82	360	1
TAP	82	372	0
HLD	83	0	3	64
STR	83	0	7
SI_	83	0	7	96	64	3
TAP	83	96	3
TAP	83	96	7
TAP	83	128	2
TAP	83	160	1
STR	83	192	0
SI_	83	192	0	96	64	4
HLD	83	192	4	64
TAP	83	288	0
TAP	83	288	4
TAP	83	320	5
TAP	83	352	6
STR	84	0	7
SI_	84	0	7	96	32	4
STR	84	48	3
SI_	84	48	3	96	32	0
TAP	84	96	7
TAP	84	144	3
STR	84	192	5
SCL	84	192	5	96	48	2
SUL	84	192	5	96	48	1
TAP	84	240	6
TAP	84	288	5
BRK	85	0	6
BRK	85	0	7
TAP	85	96	6
TAP	85	128	6
TAP	85	160	6
TAP	85	192	7
TAP	85	224	7
TAP	85	256	7
TAP	85	288	0
TAP	85	320	0
TAP	85	352	0
HLD	86	0	1	64
STR	86	96	4
SLL	86	96	4	96	64	0
TAP	86	128	4
TAP	86	160	4
HLD	86	192	4	64
STR	86	288	3
SLR	86	288	3	96	64	7
TAP	86	320	3
TAP	86	352	3
HLD	87	0	3	64
STR	87	96	0
SI_	87	96	0	96	48	4
TAP	87	192	0
TAP	87	192	7
TAP	87	288	1
TAP	87	288	5
TAP	88	0	3
TAP	88	0	4
TAP	88	48	0
TAP	88	48	5
TAP	88	72	1
TAP	88	72	6
TAP	88	96	2
TAP	88	96	7
TAP	88	144	2
TAP	88	144	7
TAP	88	168	1
TAP	88	168	6
BST	88	192	0
SF_	88	192	0	96	48	4
TAP	88	192	5
BST	88	288	0
SCR	88	288	0	96	672	7
HLD	89	0	0	672
HLD	91	0	4	48
HLD	91	48	5	48
HLD	91	96	6	48
HLD	91	144	7	48
HLD	91	192	0	48
HLD	91	240	1	48
HLD	91	288	2	48
HLD	91	336	3	48
TAP	92	0	4
TAP	92	24	3
TAP	92	48	4
TAP	92	72	3
TAP	92	96	5
TAP	92	120	2
TAP	92	144	5
TAP	92	168	2
TAP	92	192	6
TAP	92	216	1
TAP	92	240	6
TAP	92	264	1
TAP	92	288	7
TAP	92	312	0
TAP	92	336	7
TAP	92	360	0
BST	93	0	5
SI_	93	0	5	96	32	1
TAP	93	64	2
TAP	93	96	5
TAP	93	128	3
STR	93	192	4
SXR	93	192	4	96	224	0
STR	93	192	5
SI_	93	192	5	96	32	0
TAP	93	288	5
STR	94	0	5
SI_	94	0	5	96	32	7
TAP	94	96	5
STR	94	192	1
SI_	94	192	1	96	32	4
STR	94	192	5
SI_	94	192	5	96	32	0
TAP	94	288	1
TAP	94	288	5
STR	95	0	1
SI_	95	0	1	96	32	5
TAP	95	0	5
TAP	95	64	6
TAP	95	96	1
TAP	95	128	7
STR	95	192	0
SXR	95	192	0	96	224	4
STR	95	192	1
SI_	95	192	1	96	32	4
TAP	95	288	1
STR	96	0	1
SI_	96	0	1	96	32	3
TAP	96	96	1
STR	96	192	1
SI_	96	192	1	96	32	4
STR	96	192	5
SI_	96	192	5	96	32	0
STR	96	288	1
SI_	96	288	1	96	32	6
STR	96	288	5
SI_	96	288	5	96	32	2
STR	97	0	1
SCR	97	0	1	96	32	4
STR	97	0	5
SCR	97	0	5	96	32	0
TAP	97	96	1
TAP	97	96	5
BRK	97	192	1
BRK	97	192	5
TAP	98	0	0
TAP	98	0	7
TAP	98	48	5
TAP	98	72	5
TAP	98	96	4
TAP	98	96	6
TAP	98	144	2
TAP	98	168	2
TAP	98	192	1
TAP	98	192	3
TAP	98	224	4
TAP	98	256	5
TAP	98	288	2
TAP	98	288	6
TAP	98	320	3
TAP	98	320	7
TAP	98	352	0
TAP	98	352	4
STR	99	0	1
SCL	99	0	1	96	576	6
STR	99	0	5
SUR	99	0	5	96	576	2
BRK	101	0	1
BRK	101	0	5

T_REC_TAP	548
T_REC_BRK	30
T_REC_XTP	0
T_REC_HLD	71
T_REC_XHO	0
T_REC_STR	99
T_REC_BST	12
T_REC_XST	0
T_REC_TTP	0
T_REC_THO	0
T_REC_SLD	116
T_REC_ALL	876
T_NUM_TAP	647
T_NUM_BRK	42
T_NUM_HLD	71
T_NUM_SLD	116
T_NUM_ALL	876
T_JUDGE_TAP	689
T_JUDGE_HLD	182
T_JUDGE_SLD	116
T_JUDGE_ALL	987
TTM_EACHPAIRS	161
TTM_SCR_TAP	323500
TTM_SCR_BRK	109200
TTM_SCR_HLD	71000
TTM_SCR_SLD	174000
TTM_SCR_ALL	677700
TTM_SCR_S	653300
TTM_SCR_SS	673500
TTM_RAT_ACV	10062

