VERSION	0.00.00	1.03.00
FES_MODE	0
BPM_DEF	180.000	180.000	180.000	180.000
MET_DEF	4	4
RESOLUTION	384
CLK_DEF	384
COMPATIBLE_CODE	MA2

BPM	0	0	180.000

HLD	1	0	3	384
HLD	2	0	2	192
BRK	2	192	1
HLD	3	0	4	384
HLD	4	0	5	192
TAP	4	192	6
STR	5	0	3
SI_	5	0	3	96	192	0
STR	5	0	4
SI_	5	0	4	96	192	7
HLD	6	0	1	192
HLD	6	0	6	192
STR	7	0	7
SCL	7	0	7	96	480	0
HLD	9	0	2	192
TAP	9	192	3
HLD	10	0	2	192
TAP	10	96	3
TAP	10	192	3
HLD	11	0	5	192
STR	11	192	4
SXL	11	192	4	96	384	0
HLD	13	0	6	192
TAP	13	192	7
HLD	14	0	1	192
TAP	14	96	0
TAP	14	192	0
STR	15	0	7
SCL	15	0	7	96	192	4
STR	16	0	3
SCL	16	0	3	96	192	0
HLD	17	0	6	192
TAP	17	192	7
HLD	18	0	6	192
TAP	18	96	7
TAP	18	192	7
HLD	19	0	1	192
TAP	19	192	0
HLD	20	0	1	192
TAP	20	96	0
TAP	20	192	0
TAP	21	0	6
TAP	21	0	7
TAP	21	96	6
TAP	21	96	7
TAP	21	288	6
STR	21	288	7
SXL	21	288	7	96	288	4
HLD	23	0	5	384
TAP	24	0	4
TAP	24	192	2
TAP	24	192	3
HLD	25	0	4	96
HLD	25	0	5	96
TAP	25	192	6
HLD	26	0	2	96
HLD	26	0	3	96
TAP	26	192	1
HLD	27	0	4	96
HLD	27	0	5	96
TAP	27	192	6
HLD	28	0	2	96
HLD	28	0	3	96
TAP	28	192	1
TAP	29	0	3
TAP	29	0	4
TAP	29	96	5
TAP	29	192	6
TAP	30	0	3
TAP	30	0	4
TAP	30	96	2
TAP	30	192	1
TAP	31	0	3
TAP	31	0	4
TAP	31	96	2
TAP	31	96	5
TAP	31	192	1
TAP	31	192	6
STR	31	288	0
SXL	31	288	0	96	288	3
STR	31	288	7
SXR	31	288	7	96	288	4
STR	33	0	2
SCL	33	0	2	96	192	5
BRK	33	0	5
TAP	34	0	4
TAP	34	96	3
TAP	34	192	2
STR	34	288	1
SLL	34	288	1	96	192	4
TAP	35	288	5
HLD	36	0	2	96
TAP	36	96	3
HLD	36	192	5	96
TAP	36	288	4
STR	37	0	6
SSR	37	0	6	96	192	2
TAP	38	0	1
TAP	38	96	0
TAP	38	192	0
TAP	38	192	7
TAP	38	288	0
TAP	38	288	7
TAP	39	0	6
TAP	39	0	7
TAP	39	96	0
TAP	39	96	5
TAP	39	192	0
TAP	39	192	1
TAP	39	288	2
TAP	39	288	7
TAP	40	0	0
TAP	40	0	7
TAP	40	96	1
TAP	40	96	6
BRK	40	192	2
BRK	40	192	5
BRK	41	0	2
STR	41	0	5
SCR	41	0	5	96	192	2
TAP	42	0	3
TAP	42	96	4
TAP	42	192	5
STR	42	288	6
SLR	42	288	6	96	192	3
TAP	43	288	2
HLD	44	0	5	96
TAP	44	96	4
HLD	44	192	2	96
TAP	44	288	3
STR	45	0	1
SSL	45	0	1	96	192	5
TAP	46	0	6
TAP	46	96	7
TAP	46	192	0
TAP	46	192	7
TAP	46	288	0
TAP	46	288	7
TAP	47	0	0
TAP	47	0	1
TAP	47	96	2
TAP	47	96	7
TAP	47	192	6
TAP	47	192	7
TAP	47	288	0
TAP	47	288	5
TAP	48	0	0
TAP	48	0	7
TAP	48	96	1
TAP	48	96	6
BRK	48	192	2
BRK	48	192	5
TAP	49	0	4
HLD	49	0	5	192
TAP	49	96	3
TAP	49	192	4
HLD	50	0	2	192
TAP	50	0	3
TAP	50	96	4
TAP	50	192	3
TAP	51	0	4
HLD	51	0	5	384
TAP	51	96	4
TAP	51	192	3
TAP	51	288	3
HLD	52	0	4	192
TAP	52	192	5
HLD	53	0	2	192
TAP	53	0	3
TAP	53	96	4
TAP	53	192	3
TAP	54	0	4
HLD	54	0	5	192
TAP	54	96	3
TAP	54	192	4
HLD	55	0	2	384
TAP	55	0	3
TAP	55	96	3
TAP	55	192	4
TAP	55	288	4
HLD	56	0	3	192
TAP	56	192	2
TAP	57	0	0
HLD	57	0	1	192
TAP	57	96	7
TAP	57	192	0
HLD	58	0	6	192
TAP	58	0	7
TAP	58	96	0
TAP	58	192	7
TAP	59	0	0
HLD	59	0	1	384
TAP	59	96	0
TAP	59	192	7
TAP	59	288	7
HLD	60	0	0	192
TAP	60	192	1
HLD	61	0	6	192
TAP	61	0	7
TAP	61	96	0
TAP	61	192	7
TAP	62	0	0
HLD	62	0	1	192
TAP	62	96	7
TAP	62	192	0
STR	63	0	0
SI_	63	0	0	96	192	3
STR	63	0	7
SI_	63	0	7	96	192	4
HLD	64	0	2	96
HLD	64	0	5	96
TAP	64	192	2
TAP	64	192	5
TAP	65	0	1
TAP	65	96	1
TAP	65	192	0
TAP	66	0	1
TAP	66	96	1
TAP	66	192	0
TAP	67	0	1
TAP	67	96	1
TAP	67	192	0
TAP	68	0	6
TAP	68	48	6
TAP	68	96	6
TAP	68	192	6
TAP	68	192	7
TAP	68	288	0
TAP	68	288	1
TAP	69	0	0
TAP	69	0	7
TAP	69	96	6
TAP	69	192	0
TAP	69	192	7
TAP	69	288	1
TAP	70	0	0
TAP	70	0	7
TAP	70	96	6
TAP	70	96	7
TAP	70	192	0
TAP	70	192	7
STR	70	288	0
SXR	70	288	0	96	288	5
STR	70	288	1
SXL	70	288	1	96	288	4
BRK	72	0	2
BRK	72	0	3
BRK	72	96	4
BRK	72	96	5
BRK	72	192	1
BRK	72	192	6
BRK	72	288	0
BRK	72	288	7
TAP	73	0	6
TAP	73	0	7
TAP	73	96	0
TAP	73	96	5
TAP	73	192	6
TAP	73	192	7
TAP	73	288	0
TAP	73	288	5
TAP	74	0	6
TAP	74	0	7
STR	74	96	0
SI_	74	96	0	96	96	2
STR	74	96	5
SI_	74	96	5	96	96	3
TAP	75	0	0
TAP	75	0	1
TAP	75	96	2
TAP	75	96	7
TAP	75	192	0
TAP	75	192	1
TAP	75	288	2
TAP	75	288	7
STR	76	0	0
SSL	76	0	0	96	192	4
TAP	76	0	1
TAP	77	0	3
TAP	77	0	5
TAP	77	96	2
TAP	77	192	1
STR	77	288	0
SI_	77	288	0	96	96	2
STR	78	96	7
SI_	78	96	7	96	96	5
TAP	79	0	2
TAP	79	0	3
TAP	79	96	1
TAP	79	96	4
TAP	79	192	4
TAP	79	192	5
TAP	79	288	3
TAP	79	288	6
TAP	80	0	3
TAP	80	0	4
TAP	80	96	2
TAP	80	96	5
BRK	80	192	1
BRK	80	192	6
TAP	81	0	2
TAP	81	0	3
TAP	81	96	1
TAP	81	96	4
TAP	81	192	2
TAP	81	192	3
TAP	81	288	1
TAP	81	288	4
TAP	82	0	2
TAP	82	0	3
STR	82	96	1
SI_	82	96	1	96	96	7
STR	82	96	4
SI_	82	96	4	96	96	6
TAP	83	0	4
TAP	83	0	5
TAP	83	96	3
TAP	83	96	6
TAP	83	192	4
TAP	83	192	5
TAP	83	288	3
TAP	83	288	6
STR	84	0	4
SSR	84	0	4	96	192	0
TAP	84	0	5
TAP	85	0	1
TAP	85	0	7
TAP	85	96	6
TAP	85	192	5
STR	85	288	4
SI_	85	288	4	96	96	6
STR	86	96	3
SI_	86	96	3	96	96	1
TAP	87	0	6
TAP	87	0	7
TAP	87	96	0
TAP	87	96	5
TAP	87	192	0
TAP	87	192	1
TAP	87	288	2
TAP	87	288	7
TAP	88	0	0
TAP	88	0	7
TAP	88	96	0
TAP	88	96	7
HLD	88	192	1	96
HLD	88	192	6	96
STR	89	0	0
SXL	89	0	0	96	480	4
STR	89	0	7
SXR	89	0	7	96	480	3
HLD	91	0	2	576
HLD	91	0	5	576
HLD	93	0	0	384
HLD	94	0	7	192
TAP	94	192	6
HLD	95	0	7	384
HLD	96	0	0	192
BRK	96	192	1
STR	97	0	0
SI_	97	0	0	96	192	3
STR	97	0	7
SI_	97	0	7	96	192	4
HLD	98	0	2	192
HLD	98	0	5	192
STR	99	0	4
SCR	99	0	4	96	480	3
BRK	101	0	2
BRK	101	0	5

T_REC_TAP	227
T_REC_BRK	20
T_REC_XTP	0
T_REC_HLD	54
T_REC_XHO	0
T_REC_STR	34
T_REC_BST	0
T_REC_XST	0
T_REC_TTP	0
T_REC_THO	0
T_REC_SLD	34
T_REC_ALL	369
T_NUM_TAP	261
T_NUM_BRK	20
T_NUM_HLD	54
T_NUM_SLD	34
T_NUM_ALL	369
T_JUDGE_TAP	281
T_JUDGE_HLD	232
T_JUDGE_SLD	34
T_JUDGE_ALL	547
TTM_EACHPAIRS	105
TTM_SCR_TAP	130500
TTM_SCR_BRK	52000
TTM_SCR_HLD	54000
TTM_SCR_SLD	51000
TTM_SCR_ALL	287500
TTM_SCR_S	276950
TTM_SCR_SS	285500
TTM_RAT_ACV	10070

