VERSION	0.00.00	1.03.00
FES_MODE	0
BPM_DEF	180.000	180.000	180.000	180.000
MET_DEF	4	4
RESOLUTION	384
CLK_DEF	384
COMPATIBLE_CODE	MA2

BPM	0	0	180.000

BRK	2	192	0
TAP	9	0	3
TAP	9	192	3
TAP	10	0	3
TAP	11	0	4
TAP	11	192	4
TAP	12	0	4
TAP	13	0	5
TAP	13	192	5
TAP	14	0	6
TAP	14	192	6
STR	15	0	7
SI_	15	0	7	96	288	4
TAP	17	0	3
TAP	17	192	3
TAP	18	0	2
TAP	18	0	4
TAP	19	0	4
TAP	19	192	4
TAP	20	0	3
TAP	20	0	5
TAP	21	0	2
TAP	21	192	2
TAP	22	0	1
TAP	22	192	1
STR	23	0	0
SI_	23	0	0	96	288	3
HLD	25	0	4	384
HLD	27	0	5	384
TAP	29	0	6
TAP	29	192	6
TAP	30	0	6
TAP	30	192	6
TAP	31	0	7
TAP	31	192	7
BRK	32	0	0
BRK	32	0	7
TAP	33	0	0
TAP	33	192	0
HLD	34	0	0	192
TAP	35	0	1
TAP	35	192	1
TAP	36	0	2
TAP	36	96	2
TAP	36	192	2
TAP	37	0	3
TAP	37	192	3
HLD	38	0	3	192
TAP	39	0	4
TAP	39	0	5
TAP	39	192	4
TAP	39	192	5
TAP	40	0	6
TAP	40	96	6
BRK	40	192	6
TAP	41	0	7
TAP	41	192	7
HLD	42	0	7	192
TAP	43	0	6
TAP	43	192	6
TAP	44	0	5
TAP	44	96	5
TAP	44	192	5
TAP	45	0	4
TAP	45	192	4
HLD	46	0	4	192
TAP	47	0	2
TAP	47	0	3
TAP	47	192	2
TAP	47	192	3
TAP	48	0	1
TAP	48	96	1
BRK	48	192	1
TAP	49	0	0
TAP	49	192	0
TAP	50	0	0
TAP	51	0	7
TAP	51	192	7
TAP	52	0	7
TAP	53	0	6
TAP	53	192	6
TAP	54	0	5
TAP	54	192	5
STR	55	0	4
SI_	55	0	4	96	288	7
TAP	57	0	0
TAP	57	192	0
TAP	58	0	1
TAP	58	0	7
TAP	59	0	7
TAP	59	192	7
TAP	60	0	0
TAP	60	0	6
TAP	61	0	1
TAP	61	192	1
TAP	62	0	2
TAP	62	192	2
STR	63	0	3
SI_	63	0	3	96	288	0
TAP	65	0	7
TAP	65	96	7
TAP	65	192	7
TAP	66	0	6
TAP	66	96	6
TAP	66	192	6
TAP	67	0	5
TAP	67	96	5
TAP	67	192	5
TAP	68	0	4
TAP	68	96	3
BRK	68	192	4
TAP	69	0	3
TAP	69	96	3
TAP	69	192	2
TAP	69	288	2
TAP	70	0	1
TAP	70	96	1
TAP	70	192	0
TAP	70	288	0
TAP	71	0	7
TAP	71	96	7
TAP	71	192	6
TAP	71	288	6
HLD	72	0	4	192
HLD	72	0	5	192
TAP	73	0	4
TAP	73	0	5
TAP	73	96	4
TAP	73	96	5
TAP	73	192	2
TAP	73	192	3
TAP	73	288	2
TAP	73	288	3
TAP	74	0	4
TAP	74	0	5
TAP	74	96	4
TAP	74	96	5
BRK	74	192	2
BRK	74	192	3
TAP	75	0	0
TAP	75	0	1
TAP	75	96	0
TAP	75	96	1
TAP	75	192	6
TAP	75	192	7
TAP	75	288	6
TAP	75	288	7
HLD	76	0	0	192
TAP	76	192	7
TAP	77	0	7
TAP	77	96	6
TAP	77	192	5
TAP	77	288	4
TAP	78	0	3
TAP	78	96	2
TAP	78	192	1
TAP	78	288	0
HLD	79	0	7	192
TAP	79	192	0
HLD	80	0	0	192
TAP	80	192	7
TAP	81	0	6
TAP	81	0	7
TAP	81	96	6
TAP	81	96	7
TAP	81	192	0
TAP	81	192	1
TAP	81	288	0
TAP	81	288	1
TAP	82	0	6
TAP	82	0	7
TAP	82	96	6
TAP	82	96	7
BRK	82	192	0
BRK	82	192	1
TAP	83	0	2
TAP	83	0	3
TAP	83	96	2
TAP	83	96	3
TAP	83	192	4
TAP	83	192	5
TAP	83	288	4
TAP	83	288	5
HLD	84	0	3	192
TAP	84	192	4
TAP	85	0	4
TAP	85	96	5
TAP	85	192	6
TAP	85	288	7
TAP	86	0	0
TAP	86	96	1
TAP	86	192	2
TAP	86	288	3
HLD	87	0	4	192
TAP	87	192	3
HLD	88	0	3	192
TAP	88	192	4
STR	89	0	3
SI_	89	0	3	96	288	0
STR	89	0	4
SI_	89	0	4	96	288	7
BRK	96	144	0
HLD	97	0	1	192
HLD	98	0	2	192
HLD	99	0	3	768
HLD	99	0	4	768

T_REC_TAP	165
T_REC_BRK	11
T_REC_XTP	0
T_REC_HLD	18
T_REC_XHO	0
T_REC_STR	6
T_REC_BST	0
T_REC_XST	0
T_REC_TTP	0
T_REC_THO	0
T_REC_SLD	6
T_REC_ALL	206
T_NUM_TAP	171
T_NUM_BRK	11
T_NUM_HLD	18
T_NUM_SLD	6
T_NUM_ALL	206
T_JUDGE_TAP	182
T_JUDGE_HLD	104
T_JUDGE_SLD	6
T_JUDGE_ALL	292
TTM_EACHPAIRS	34
TTM_SCR_TAP	85500
TTM_SCR_BRK	28600
TTM_SCR_HLD	18000
TTM_SCR_SLD	9000
TTM_SCR_ALL	141100
TTM_SCR_S	135800
TTM_SCR_SS	140000
TTM_RAT_ACV	10078

