VERSION	0.00.00	1.03.00
FES_MODE	0
BPM_DEF	120.000	135.000	135.000	 91.000
MET_DEF	4	4
RESOLUTION	384
CLK_DEF	384
COMPATIBLE_CODE	MA2

BPM	0	0	120.000
BPM	5	0	 91.000
BPM	6	0	135.000

STR	1	0	1
SCR	1	0	1	96	32	3
STR	1	0	6
SCL	1	0	6	96	32	4
STR	1	192	1
SCR	1	192	1	96	32	3
STR	1	192	6
SCL	1	192	6	96	32	4
STR	2	0	0
SCR	2	0	0	96	32	2
STR	2	0	5
SCL	2	0	5	96	32	3
STR	2	192	0
SCR	2	192	0	96	32	2
STR	2	192	5
SCL	2	192	5	96	32	3
STR	3	0	2
SCR	3	0	2	96	32	4
STR	3	0	7
SCL	3	0	7	96	32	5
STR	3	192	2
SCR	3	192	2	96	32	4
STR	3	192	7
SCL	3	192	7	96	32	5
STR	4	0	0
SCR	4	0	0	96	32	2
STR	4	0	7
SCL	4	0	7	96	32	5
BST	4	192	3
SXR	4	192	3	96	240	2
BST	4	192	4
SXL	4	192	4	96	240	5
TAP	6	0	6
TAP	6	64	6
TAP	6	96	3
TAP	6	160	3
TAP	6	192	5
TAP	6	256	5
TAP	6	288	1
TAP	6	352	1
STR	7	0	1
SV_	7	0	1	96	48	4
STR	7	0	7
SV_	7	0	7	96	48	4
STR	7	192	2
SI_	7	192	2	96	48	6
STR	7	192	5
SI_	7	192	5	96	48	3
TAP	7	288	2
TAP	7	288	5
TAP	8	0	1
TAP	8	64	1
TAP	8	96	4
TAP	8	160	4
TAP	8	192	2
TAP	8	256	2
TAP	8	288	6
TAP	8	352	6
STR	9	0	0
SV_	9	0	0	96	48	3
STR	9	0	6
SV_	9	0	6	96	48	3
STR	9	192	2
SI_	9	192	2	96	48	4
STR	9	192	5
SI_	9	192	5	96	48	1
TAP	9	288	2
TAP	9	288	5
TAP	10	0	6
TAP	10	64	6
TAP	10	96	4
TAP	10	160	4
TAP	10	192	3
TAP	10	256	3
TAP	10	288	1
TAP	10	352	1
STR	11	0	1
SCR	11	0	1	96	48	4
STR	11	0	5
SCR	11	0	5	96	48	0
STR	11	96	1
SUL	11	96	1	96	48	5
STR	11	96	5
SUL	11	96	5	96	48	1
TAP	11	288	3
TAP	11	288	7
TAP	12	0	1
TAP	12	64	1
TAP	12	96	3
TAP	12	160	3
TAP	12	192	4
TAP	12	256	4
TAP	12	288	6
TAP	12	352	6
STR	13	0	1
SCR	13	0	1	96	48	4
TAP	13	64	0
TAP	13	96	1
STR	13	192	6
SCL	13	192	6	96	48	3
TAP	13	256	7
TAP	13	288	6
STR	14	0	1
SV_	14	0	1	96	48	3
STR	14	0	3
SXL	14	0	3	96	48	5
STR	14	192	4
SXR	14	192	4	96	48	2
STR	14	192	6
SV_	14	192	6	96	48	4
TAP	15	0	3
TAP	15	0	6
TAP	15	96	1
TAP	15	96	4
STR	15	192	4
SXR	15	192	4	96	48	2
STR	15	192	6
SV_	15	192	6	96	48	4
STR	16	0	1
SV_	16	0	1	96	48	3
STR	16	0	3
SXL	16	0	3	96	48	5
STR	16	192	6
SI_	16	192	6	96	48	0
STR	16	192	7
SI_	16	192	7	96	48	3
STR	17	0	1
SCR	17	0	1	96	48	4
SXR	17	0	1	96	48	0
STR	17	192	3
SV_	17	192	3	96	48	0
STR	17	192	4
SI_	17	192	4	96	48	7
STR	18	0	0
SCL	18	0	0	96	48	5
TAP	18	0	1
TAP	18	64	1
TAP	18	96	0
TAP	18	192	2
STR	18	192	3
SCR	18	192	3	96	48	6
TAP	18	256	2
TAP	18	288	3
STR	19	0	0
SCL	19	0	0	96	48	5
TAP	19	0	1
TAP	19	64	1
STR	19	96	0
SI_	19	96	0	96	48	4
BRK	19	192	0
BRK	19	192	4
TAP	19	288	2
TAP	19	288	6
TAP	20	0	6
STR	20	0	7
SCR	20	0	7	96	48	2
TAP	20	64	6
TAP	20	96	7
STR	20	192	4
SCL	20	192	4	96	48	1
TAP	20	192	5
TAP	20	256	5
TAP	20	288	4
TAP	21	0	0
STR	21	0	7
SV_	21	0	7	96	48	2
TAP	21	64	0
STR	21	96	7
SI_	21	96	7	96	48	1
SI_	21	96	7	96	48	5
BST	21	192	7
SI_	21	192	7	96	48	2
SI_	21	192	7	96	48	4
BRK	21	288	7
STR	22	0	0
SCL	22	0	0	96	48	5
TAP	22	0	1
TAP	22	64	1
TAP	22	96	0
STR	22	192	4
SCL	22	192	4	96	48	1
TAP	22	192	5
TAP	22	256	5
TAP	22	288	4
STR	23	0	0
SCL	23	0	0	96	48	5
TAP	23	0	1
TAP	23	64	1
TAP	23	96	0
BRK	23	192	0
BRK	23	192	5
TAP	23	200	1
TAP	23	200	6
TAP	23	208	2
TAP	23	208	7
BRK	23	288	2
BRK	23	288	7
TAP	23	296	1
TAP	23	296	6
TAP	23	304	0
TAP	23	304	5
STR	24	0	0
SUL	24	0	0	96	48	4
TAP	24	0	6
STR	24	96	0
SUR	24	96	0	96	48	4
TAP	24	96	2
STR	24	192	0
SCL	24	192	0	96	48	5
TAP	24	192	5
STR	24	288	0
SCR	24	288	0	96	48	3
TAP	24	288	3
STR	25	0	0
SCL	25	0	0	96	48	5
TAP	25	0	5
TAP	25	96	3
TAP	25	192	0
TAP	25	192	5
TAP	25	200	1
TAP	25	208	2
TAP	25	216	3
STR	25	288	0
SI_	25	288	0	96	48	4
TAP	25	288	3
TAP	25	296	7
TAP	25	304	6
TAP	25	312	5
BST	26	0	0
SCL	26	0	0	96	48	5
SCR	26	0	0	96	48	3
BST	26	96	0
SF_	26	96	0	96	48	4
BRK	26	192	0
BST	26	288	7
SI_	26	288	7	96	48	3
BST	27	0	7
SCL	27	0	7	96	48	4
SCR	27	0	7	96	48	2
BST	27	96	7
SF_	27	96	7	96	48	3
BRK	27	192	7
BST	27	288	0
SI_	27	288	0	96	48	4
BST	28	0	0
SCL	28	0	0	96	48	5
SCR	28	0	0	96	48	3
BST	28	96	0
SF_	28	96	0	96	48	4
BST	28	192	0
SI_	28	192	0	96	48	2
SI_	28	192	0	96	48	6
BST	28	288	0
SI_	28	288	0	96	48	3
SI_	28	288	0	96	48	4
BST	29	0	0
SI_	29	0	0	96	48	5
SI_	29	0	0	96	48	6
BST	29	96	0
SF_	29	96	0	96	48	4
BRK	29	192	0
BST	29	288	7
SI_	29	288	7	96	48	3
BST	30	0	7
SCL	30	0	7	96	48	4
SCR	30	0	7	96	48	2
BST	30	96	7
SF_	30	96	7	96	48	3
BRK	30	192	7
BST	30	288	0
SI_	30	288	0	96	48	4
BST	31	0	0
SCL	31	0	0	96	48	5
SCR	31	0	0	96	48	3
BST	31	96	0
SF_	31	96	0	96	48	4
BRK	31	192	0
BST	31	288	7
SI_	31	288	7	96	48	3
BST	32	0	7
SCL	32	0	7	96	48	4
SCR	32	0	7	96	48	2
BST	32	96	7
SF_	32	96	7	96	48	3
BST	32	192	7
SI_	32	192	7	96	48	1
SI_	32	192	7	96	48	5
BST	32	288	7
SI_	32	288	7	96	48	3
SI_	32	288	7	96	48	4
BST	33	0	7
SI_	33	0	7	96	48	1
SI_	33	0	7	96	48	2
BST	33	96	7
SF_	33	96	7	96	48	3
BRK	33	192	7
BRK	33	288	1
BRK	33	288	6
STR	34	0	3
SUR	34	0	3	96	48	7
STR	34	0	7
SCL	34	0	7	96	48	4
STR	34	96	3
SUL	34	96	3	96	48	7
STR	34	96	7
SCR	34	96	7	96	48	2
STR	34	192	3
SUR	34	192	3	96	48	7
STR	34	192	7
SCL	34	192	7	96	48	4
TAP	34	288	3
TAP	34	288	7
TAP	35	0	0
TAP	35	0	3
TAP	35	64	2
TAP	35	96	3
TAP	35	96	7
TAP	35	160	6
STR	35	192	1
SI_	35	192	1	96	48	4
STR	35	192	5
SI_	35	192	5	96	48	2
STR	36	0	0
SCR	36	0	0	96	48	3
STR	36	0	4
SUL	36	0	4	96	48	0
STR	36	96	0
SCL	36	96	0	96	48	5
STR	36	96	4
SUR	36	96	4	96	48	0
STR	36	192	0
SCR	36	192	0	96	48	3
STR	36	192	4
SUL	36	192	4	96	48	0
TAP	36	288	0
TAP	36	288	4
TAP	37	0	6
TAP	37	32	7
TAP	37	64	6
TAP	37	96	5
TAP	37	96	7
TAP	37	160	0
TAP	37	160	7
TAP	37	192	0
TAP	37	192	7
TAP	37	288	2
TAP	37	288	5
STR	38	0	1
SI_	38	0	1	96	48	3
STR	38	0	3
SXL	38	0	3	96	48	5
STR	38	96	3
SI_	38	96	3	96	48	7
TAP	38	192	3
TAP	38	288	0
TAP	38	288	6
STR	39	0	4
SXR	39	0	4	96	48	2
STR	39	0	6
SI_	39	0	6	96	48	4
STR	39	96	4
SI_	39	96	4	96	48	0
TAP	39	192	4
HLD	39	288	7	756
BST	40	0	0
SCR	40	0	0	96	72	6
BST	40	192	0
SCR	40	192	0	96	72	6
BRK	41	0	0
TAP	41	12	1
TAP	41	24	2
TAP	41	36	3
TAP	41	48	4
TAP	41	60	5
TAP	41	72	6
BRK	41	96	0
TAP	41	108	1
TAP	41	120	2
TAP	41	132	3
TAP	41	144	4
TAP	41	156	5
TAP	41	168	6
BRK	41	192	0
TAP	41	204	1
TAP	41	216	2
TAP	41	228	3
TAP	41	240	4
TAP	41	252	5
TAP	41	264	6
BST	41	288	0
SI_	41	288	0	96	48	3
SI_	41	288	0	96	48	5
BRK	42	0	0
STR	42	96	4
SI_	42	96	4	96	48	1
SI_	42	96	4	96	48	7
BRK	42	192	4
STR	42	288	0
SI_	42	288	0	96	48	2
STR	42	288	4
SI_	42	288	4	96	48	6
BST	43	0	0
SI_	43	0	0	96	48	3
BST	43	0	4
SI_	43	0	4	96	48	7
BST	43	96	0
SI_	43	96	0	96	48	4
BST	43	96	4
SI_	43	96	4	96	48	0
BRK	43	192	0
BRK	43	192	4
STR	43	288	7
SI_	43	288	7	96	48	2
SI_	43	288	7	96	48	4
BRK	44	0	7
STR	44	96	3
SI_	44	96	3	96	48	0
SI_	44	96	3	96	48	6
BRK	44	192	3
STR	44	288	3
SI_	44	288	3	96	48	1
STR	44	288	7
SI_	44	288	7	96	48	5
BST	45	0	3
SI_	45	0	3	96	48	0
BST	45	0	7
SI_	45	0	7	96	48	4
BST	45	96	3
SI_	45	96	3	96	48	7
BST	45	96	7
SI_	45	96	7	96	48	3
BRK	45	192	3
BRK	45	192	7
STR	45	288	0
SSL	45	288	0	96	48	4
STR	45	288	7
SSR	45	288	7	96	48	3
BST	46	0	0
SCR	46	0	0	96	384	7
BST	46	0	7
SCL	46	0	7	96	384	0
STR	47	192	3
SI_	47	192	3	96	96	7
STR	47	288	7
SCR	47	288	7	96	96	6
STR	48	0	6
SUR	48	0	6	96	96	7
STR	48	96	7
SCR	48	96	7	96	96	6
STR	48	192	6
SUR	48	192	6	96	96	7
STR	48	288	7
SCR	48	288	7	96	96	6
STR	49	0	6
SUR	49	0	6	96	96	7
STR	49	96	7
SCR	49	96	7	96	96	6
STR	49	192	6
SUR	49	192	6	96	96	7
TAP	49	288	7
TAP	50	0	6
TAP	50	96	0
BRK	50	104	1
BRK	50	104	7
BRK	50	112	2
BRK	50	112	6
BRK	50	120	3
BRK	50	120	5
BRK	50	128	4

T_REC_TAP	142
T_REC_BRK	33
T_REC_XTP	0
T_REC_HLD	1
T_REC_XHO	0
T_REC_STR	96
T_REC_BST	41
T_REC_XST	0
T_REC_TTP	0
T_REC_THO	0
T_REC_SLD	156
T_REC_ALL	469
T_NUM_TAP	238
T_NUM_BRK	74
T_NUM_HLD	1
T_NUM_SLD	156
T_NUM_ALL	469
T_JUDGE_TAP	312
T_JUDGE_HLD	16
T_JUDGE_SLD	156
T_JUDGE_ALL	484
TTM_EACHPAIRS	81
TTM_SCR_TAP	119000
TTM_SCR_BRK	192400
TTM_SCR_HLD	1000
TTM_SCR_SLD	234000
TTM_SCR_ALL	546400
TTM_SCR_S	522850
TTM_SCR_SS	539000
TTM_RAT_ACV	10137

