VERSION	0.00.00	1.03.00
FES_MODE	0
BPM_DEF	120.000	135.000	135.000	 91.000
MET_DEF	4	4
RESOLUTION	384
CLK_DEF	384
COMPATIBLE_CODE	MA2

BPM	0	0	120.000
BPM	5	0	 91.000
BPM	6	0	135.000

HLD	1	0	3	96
HLD	1	0	4	96
HLD	1	192	3	96
HLD	1	192	4	96
HLD	2	0	2	96
HLD	2	0	3	96
HLD	2	192	2	96
HLD	2	192	3	96
HLD	3	0	4	96
HLD	3	0	5	96
HLD	3	192	4	96
HLD	3	192	5	96
HLD	4	0	3	96
HLD	4	0	4	96
BST	4	192	3
SXR	4	192	3	96	240	1
BST	4	192	4
SXL	4	192	4	96	240	6
TAP	6	0	4
TAP	6	0	5
TAP	6	96	6
TAP	6	192	2
TAP	6	192	3
TAP	6	288	1
HLD	7	0	4	96
TAP	7	0	5
HLD	7	96	6	96
TAP	7	192	7
TAP	7	288	0
TAP	7	288	5
TAP	8	0	2
TAP	8	0	3
TAP	8	96	1
TAP	8	192	4
TAP	8	192	5
TAP	8	288	6
TAP	9	0	2
HLD	9	0	3	96
HLD	9	96	1	96
TAP	9	192	0
TAP	9	288	2
TAP	9	288	7
TAP	10	0	4
TAP	10	0	5
TAP	10	96	7
TAP	10	192	2
TAP	10	192	3
TAP	10	288	0
TAP	11	0	3
STR	11	0	4
SUL	11	0	4	96	120	3
BRK	11	288	1
BRK	11	288	6
TAP	12	0	3
TAP	12	0	4
TAP	12	96	6
TAP	12	192	3
TAP	12	192	4
TAP	12	288	1
HLD	13	0	2	96
HLD	13	96	3	96
HLD	13	192	4	96
TAP	13	288	5
TAP	14	0	2
HLD	14	0	3	96
TAP	14	96	0
HLD	14	192	4	96
TAP	14	192	5
TAP	14	288	7
TAP	15	0	1
TAP	15	0	3
TAP	15	96	3
TAP	15	96	5
TAP	15	192	0
TAP	15	192	7
HLD	16	0	4	96
TAP	16	0	5
TAP	16	96	7
TAP	16	192	2
HLD	16	192	3	96
TAP	16	288	0
TAP	17	0	4
TAP	17	0	6
TAP	17	96	2
TAP	17	96	4
TAP	17	192	0
TAP	17	192	7
TAP	18	0	3
TAP	18	0	4
TAP	18	96	1
TAP	18	192	2
TAP	18	192	3
TAP	18	288	0
TAP	19	0	1
TAP	19	0	3
STR	19	96	0
SI_	19	96	0	96	96	3
TAP	19	96	7
TAP	20	0	3
TAP	20	0	4
TAP	20	96	6
TAP	20	192	4
TAP	20	192	5
TAP	20	288	7
TAP	21	0	4
TAP	21	0	6
STR	21	96	6
SCL	21	96	6	96	96	3
TAP	21	96	7
TAP	22	0	2
TAP	22	0	3
TAP	22	96	4
TAP	22	192	2
TAP	22	192	3
STR	22	288	2
SXL	22	288	2	96	192	7
TAP	22	288	3
BRK	23	288	6
TAP	24	0	4
TAP	24	0	5
TAP	24	96	3
TAP	24	192	4
TAP	24	192	5
TAP	24	288	7
HLD	25	0	5	96
HLD	25	96	4	96
HLD	25	192	3	96
TAP	25	288	2
BRK	26	0	0
TAP	26	0	7
BRK	26	96	1
BRK	26	192	2
STR	26	192	3
SI_	26	192	3	96	48	7
BRK	27	0	0
BRK	27	96	1
BRK	27	192	2
STR	27	192	3
SI_	27	192	3	96	48	7
BRK	28	0	0
BRK	28	96	1
BRK	28	192	2
TAP	28	192	3
BRK	28	288	3
TAP	28	288	4
BRK	29	0	1
TAP	29	0	3
TAP	29	96	4
BRK	29	96	6
BRK	29	192	0
BRK	29	192	7
BRK	30	0	0
TAP	30	0	7
BRK	30	96	1
BRK	30	192	2
STR	30	192	3
SI_	30	192	3	96	48	7
BRK	31	0	0
BRK	31	96	1
BRK	31	192	2
STR	31	192	3
SI_	31	192	3	96	48	7
BRK	32	0	0
BRK	32	96	1
BRK	32	192	2
TAP	32	192	3
BRK	32	288	3
TAP	32	288	4
BST	33	0	1
SLR	33	0	1	96	120	0
BST	33	0	6
SLL	33	0	6	96	120	7
STR	34	0	2
SCL	34	0	2	96	32	0
TAP	34	0	3
TAP	34	192	4
STR	34	192	5
SCR	34	192	5	96	32	7
TAP	35	0	1
TAP	35	0	4
TAP	35	96	3
TAP	35	96	6
STR	35	192	4
SI_	35	192	4	96	32	0
STR	35	192	5
SI_	35	192	5	96	32	7
STR	36	0	2
SCL	36	0	2	96	32	0
TAP	36	0	3
TAP	36	192	4
STR	36	192	5
SCR	36	192	5	96	32	7
TAP	37	0	1
TAP	37	0	7
TAP	37	96	0
TAP	37	96	6
TAP	37	192	0
TAP	37	192	7
TAP	37	288	1
TAP	37	288	6
STR	38	0	4
SI_	38	0	4	96	32	0
TAP	38	0	5
TAP	38	192	2
STR	38	192	3
SI_	38	192	3	96	32	7
TAP	39	0	4
TAP	39	0	6
TAP	39	96	3
TAP	39	96	4
TAP	39	192	1
TAP	39	192	3
TAP	39	288	3
TAP	39	288	7
STR	40	0	1
SCR	40	0	1	96	48	4
STR	40	0	5
SCR	40	0	5	96	48	0
TAP	40	192	3
TAP	40	192	7
TAP	40	288	2
TAP	40	288	6
STR	41	0	1
SCR	41	0	1	96	48	4
STR	41	0	5
SCR	41	0	5	96	48	0
TAP	41	192	3
TAP	41	192	7
TAP	41	288	4
TAP	41	288	5
TAP	41	372	1
TAP	41	372	4
TAP	42	84	2
TAP	42	84	3
TAP	42	180	3
TAP	42	180	6
TAP	42	276	4
TAP	42	276	5
TAP	42	372	1
TAP	42	372	4
TAP	43	84	3
TAP	43	84	6
HLD	43	180	0	96
HLD	43	180	4	96
TAP	44	0	3
TAP	44	0	7
TAP	44	84	4
TAP	44	84	5
TAP	44	180	0
TAP	44	180	4
TAP	44	276	2
TAP	44	276	3
TAP	44	372	3
TAP	44	372	7
TAP	45	84	0
TAP	45	84	4
HLD	45	180	2	96
HLD	45	180	6	96
BST	46	0	0
SCR	46	0	0	96	192	3
BST	46	0	4
SCR	46	0	4	96	192	7
TAP	47	0	6
TAP	47	96	5
TAP	47	192	4
TAP	47	288	3
TAP	48	0	2
TAP	48	96	1
BST	48	192	0
SI_	48	192	0	96	96	4
TAP	49	96	3
TAP	49	192	4
TAP	49	288	3
TAP	49	320	4
TAP	49	352	3
TAP	50	0	4
BRK	50	96	1
BRK	50	96	6

T_REC_TAP	163
T_REC_BRK	29
T_REC_XTP	0
T_REC_HLD	32
T_REC_XHO	0
T_REC_STR	20
T_REC_BST	7
T_REC_XST	0
T_REC_TTP	0
T_REC_THO	0
T_REC_SLD	27
T_REC_ALL	278
T_NUM_TAP	183
T_NUM_BRK	36
T_NUM_HLD	32
T_NUM_SLD	27
T_NUM_ALL	278
T_JUDGE_TAP	219
T_JUDGE_HLD	64
T_JUDGE_SLD	27
T_JUDGE_ALL	310
TTM_EACHPAIRS	98
TTM_SCR_TAP	91500
TTM_SCR_BRK	93600
TTM_SCR_HLD	32000
TTM_SCR_SLD	40500
TTM_SCR_ALL	257600
TTM_SCR_S	246400
TTM_SCR_SS	254000
TTM_RAT_ACV	10141

