VERSION	0.00.00	1.03.00
FES_MODE	0
BPM_DEF	120.000	135.000	135.000	 91.000
MET_DEF	4	4
RESOLUTION	384
CLK_DEF	384
COMPATIBLE_CODE	MA2

BPM	0	0	120.000
BPM	5	0	 91.000
BPM	6	0	135.000

TAP	1	0	3
TAP	1	0	4
TAP	1	192	3
TAP	1	192	4
TAP	2	0	2
TAP	2	0	3
TAP	2	192	2
TAP	2	192	3
TAP	3	0	4
TAP	3	0	5
TAP	3	192	4
TAP	3	192	5
TAP	4	0	3
TAP	4	0	4
BST	4	192	3
SXR	4	192	3	96	240	1
BST	4	192	4
SXL	4	192	4	96	240	6
TAP	6	0	2
TAP	6	96	2
TAP	6	192	2
TAP	6	192	3
TAP	7	0	5
TAP	7	96	5
TAP	7	192	4
TAP	7	192	5
TAP	7	288	6
TAP	8	0	6
TAP	8	96	6
TAP	8	192	6
TAP	8	192	7
TAP	9	0	1
TAP	9	96	1
TAP	9	192	0
TAP	9	192	1
TAP	9	288	2
TAP	10	0	2
TAP	10	96	2
TAP	10	192	2
TAP	10	192	3
STR	11	0	2
SCL	11	0	2	96	144	7
STR	11	0	3
SCR	11	0	3	96	144	6
TAP	12	0	6
TAP	12	96	6
TAP	12	192	6
TAP	12	192	7
TAP	13	0	5
TAP	13	96	5
TAP	13	192	4
TAP	13	192	5
HLD	14	0	2	192
HLD	14	192	3	192
HLD	15	0	4	192
TAP	15	192	5
HLD	16	0	5	192
HLD	16	192	4	192
HLD	17	0	3	192
TAP	17	192	2
TAP	18	0	5
TAP	18	96	5
TAP	18	192	4
TAP	18	192	6
TAP	19	0	2
TAP	19	96	2
TAP	19	192	1
TAP	19	192	3
TAP	19	288	0
TAP	20	0	6
TAP	20	96	6
TAP	20	192	5
TAP	20	192	7
TAP	21	0	1
TAP	21	96	1
TAP	21	192	0
TAP	21	192	2
TAP	21	288	3
TAP	22	0	5
TAP	22	96	5
TAP	22	192	4
TAP	22	192	6
STR	23	0	6
SCL	23	0	6	96	144	3
STR	23	0	7
SCR	23	0	7	96	144	2
TAP	24	0	2
TAP	24	96	2
TAP	24	192	1
TAP	24	192	3
TAP	25	0	1
TAP	25	96	1
TAP	25	192	0
TAP	25	192	2
BRK	26	0	0
BRK	26	96	1
BRK	26	192	2
BRK	27	0	0
BRK	27	96	1
BRK	27	192	2
BRK	28	0	0
BRK	28	96	1
BRK	28	192	2
BRK	28	288	3
TAP	29	0	4
TAP	29	96	5
TAP	29	192	3
TAP	29	192	6
BRK	30	0	0
BRK	30	96	1
BRK	30	192	2
BRK	31	0	0
BRK	31	96	1
BRK	31	192	2
BRK	32	0	0
BRK	32	96	1
BRK	32	192	2
BRK	32	288	3
TAP	33	0	4
TAP	33	96	5
TAP	33	192	3
TAP	33	192	6
HLD	34	0	2	96
TAP	34	96	3
HLD	34	192	5	96
TAP	34	288	4
TAP	35	0	6
TAP	35	0	7
TAP	35	96	6
TAP	35	96	7
TAP	35	192	0
TAP	35	192	5
HLD	36	0	5	96
TAP	36	96	4
HLD	36	192	2	96
TAP	36	288	3
TAP	37	0	0
TAP	37	0	1
TAP	37	96	0
TAP	37	96	1
TAP	37	192	2
TAP	37	192	7
STR	38	0	6
SI_	38	0	6	96	144	3
STR	38	0	7
SI_	38	0	7	96	144	2
STR	39	0	0
SI_	39	0	0	96	144	5
STR	39	0	1
SI_	39	0	1	96	144	4
TAP	40	0	0
TAP	40	96	6
TAP	40	192	0
TAP	41	0	0
TAP	41	96	6
TAP	41	192	0
BRK	42	0	0
BRK	42	0	1
BRK	42	180	6
BRK	42	180	7
TAP	42	372	0
TAP	42	372	1
TAP	43	84	0
TAP	43	84	1
BRK	43	180	2
BRK	43	180	7
BRK	43	372	6
BRK	43	372	7
BRK	44	180	0
BRK	44	180	1
TAP	44	372	6
TAP	44	372	7
TAP	45	84	6
TAP	45	84	7
BRK	45	180	0
BRK	45	180	5
BST	46	0	0
SXL	46	0	0	96	480	3
BST	46	0	7
SXR	46	0	7	96	480	4
STR	48	0	3
SXR	48	0	3	96	480	0
STR	48	0	4
SXL	48	0	4	96	480	7
TAP	50	0	0
TAP	50	0	7
TAP	50	96	1
TAP	50	96	6

T_REC_TAP	118
T_REC_BRK	32
T_REC_XTP	0
T_REC_HLD	10
T_REC_XHO	0
T_REC_STR	10
T_REC_BST	4
T_REC_XST	0
T_REC_TTP	0
T_REC_THO	0
T_REC_SLD	14
T_REC_ALL	188
T_NUM_TAP	128
T_NUM_BRK	36
T_NUM_HLD	10
T_NUM_SLD	14
T_NUM_ALL	188
T_JUDGE_TAP	164
T_JUDGE_HLD	32
T_JUDGE_SLD	14
T_JUDGE_ALL	210
TTM_EACHPAIRS	48
TTM_SCR_TAP	64000
TTM_SCR_BRK	93600
TTM_SCR_HLD	10000
TTM_SCR_SLD	21000
TTM_SCR_ALL	188600
TTM_SCR_S	179450
TTM_SCR_SS	185000
TTM_RAT_ACV	10194

