VERSION	0.00.00	1.03.00
FES_MODE	0
BPM_DEF	120.000	135.000	135.000	 91.000
MET_DEF	4	4
RESOLUTION	384
CLK_DEF	384
COMPATIBLE_CODE	MA2

BPM	0	0	120.000
BPM	5	0	 91.000
BPM	6	0	135.000

TAP	1	0	4
TAP	1	192	4
TAP	2	0	3
TAP	2	192	3
TAP	3	0	4
TAP	3	192	4
TAP	4	0	3
TAP	4	0	4
STR	4	192	3
SI_	4	192	3	96	288	0
STR	4	192	4
SI_	4	192	4	96	288	7
TAP	6	0	0
TAP	6	192	0
TAP	7	0	1
TAP	7	96	1
TAP	7	192	1
TAP	8	0	2
TAP	8	192	2
TAP	9	0	3
TAP	9	96	4
TAP	9	192	3
TAP	10	0	4
TAP	10	192	4
TAP	11	0	5
TAP	11	96	5
TAP	11	192	5
TAP	12	0	6
TAP	12	192	6
TAP	13	0	7
TAP	13	96	0
TAP	13	192	7
HLD	14	0	6	192
HLD	14	0	7	192
HLD	15	0	0	192
HLD	15	0	1	192
HLD	16	0	6	192
HLD	16	0	7	192
HLD	17	0	0	192
HLD	17	0	1	192
TAP	18	0	7
TAP	18	192	7
TAP	19	0	6
TAP	19	96	6
TAP	19	192	6
TAP	20	0	5
TAP	20	192	5
TAP	21	0	4
TAP	21	96	3
TAP	21	192	4
TAP	22	0	3
TAP	22	192	3
TAP	23	0	2
TAP	23	96	2
BRK	23	192	2
TAP	24	0	1
TAP	24	192	1
TAP	25	0	0
TAP	25	96	7
TAP	25	192	0
BRK	26	0	0
TAP	26	96	0
TAP	26	192	0
TAP	27	0	1
TAP	27	96	1
TAP	27	192	1
TAP	28	0	2
TAP	28	96	2
TAP	28	192	2
TAP	29	0	0
TAP	29	0	1
TAP	29	96	0
TAP	29	96	1
TAP	29	192	0
TAP	29	192	1
TAP	30	0	0
TAP	30	96	0
TAP	30	192	0
TAP	31	0	1
TAP	31	96	1
TAP	31	192	1
TAP	32	0	2
TAP	32	96	2
TAP	32	192	2
TAP	33	0	0
TAP	33	0	1
TAP	33	96	0
TAP	33	96	1
TAP	33	192	0
TAP	33	192	1
BRK	34	0	0
BRK	34	0	7
TAP	34	96	0
TAP	34	96	7
TAP	34	192	0
TAP	34	192	7
TAP	35	0	6
TAP	35	96	6
TAP	35	192	6
TAP	35	192	7
TAP	36	0	5
TAP	36	96	5
TAP	36	192	5
TAP	37	0	4
TAP	37	96	4
TAP	37	192	3
TAP	37	192	4
TAP	38	0	2
TAP	38	96	2
TAP	38	192	2
TAP	39	0	1
TAP	39	96	1
TAP	39	192	0
TAP	39	192	1
HLD	40	0	0	192
HLD	41	0	7	192
TAP	42	0	0
TAP	42	0	1
TAP	42	192	0
TAP	42	192	1
TAP	43	0	0
TAP	43	0	7
TAP	43	96	0
TAP	43	96	7
TAP	43	192	0
TAP	43	192	7
TAP	44	0	6
TAP	44	0	7
TAP	44	192	6
TAP	44	192	7
TAP	45	0	0
TAP	45	0	7
TAP	45	96	0
TAP	45	96	7
TAP	45	192	0
TAP	45	192	7
STR	46	0	0
SI_	46	0	0	96	288	3
STR	46	0	7
SI_	46	0	7	96	288	4
STR	48	0	3
SI_	48	0	3	96	288	0
STR	48	0	4
SI_	48	0	4	96	288	7
TAP	50	0	0
TAP	50	0	7
TAP	50	96	0
TAP	50	96	7

T_REC_TAP	122
T_REC_BRK	4
T_REC_XTP	0
T_REC_HLD	10
T_REC_XHO	0
T_REC_STR	6
T_REC_BST	0
T_REC_XST	0
T_REC_TTP	0
T_REC_THO	0
T_REC_SLD	6
T_REC_ALL	148
T_NUM_TAP	128
T_NUM_BRK	4
T_NUM_HLD	10
T_NUM_SLD	6
T_NUM_ALL	148
T_JUDGE_TAP	132
T_JUDGE_HLD	40
T_JUDGE_SLD	6
T_JUDGE_ALL	178
TTM_EACHPAIRS	32
TTM_SCR_TAP	64000
TTM_SCR_BRK	10400
TTM_SCR_HLD	10000
TTM_SCR_SLD	9000
TTM_SCR_ALL	93400
TTM_SCR_S	90250
TTM_SCR_SS	93000
TTM_RAT_ACV	10043

