VERSION	0.00.00	1.03.00
FES_MODE	0
BPM_DEF	150.000	150.000	150.000	150.000
MET_DEF	4	4
RESOLUTION	384
CLK_DEF	384
COMPATIBLE_CODE	MA2

BPM	0	0	150.000

TAP	2	0	0
TAP	2	48	0
TAP	2	96	0
TAP	2	144	0
TAP	2	192	0
TAP	2	240	0
TAP	2	288	0
TAP	3	0	7
TAP	3	48	7
TAP	3	96	7
TAP	3	144	7
TAP	3	192	7
TAP	4	0	1
HLD	4	0	5	288
TAP	4	48	1
TAP	4	96	1
TAP	4	144	1
TAP	4	192	1
TAP	4	240	1
TAP	4	288	1
HLD	5	0	0	192
TAP	5	0	4
TAP	5	48	4
TAP	5	96	4
TAP	5	144	4
TAP	5	192	4
TAP	5	240	2
TAP	5	264	3
TAP	5	288	2
TAP	5	336	5
TAP	6	0	2
HLD	6	0	6	288
TAP	6	48	2
TAP	6	96	2
TAP	6	144	2
TAP	6	192	2
TAP	6	240	2
TAP	6	288	2
TAP	7	0	0
TAP	7	0	5
TAP	7	48	5
TAP	7	96	5
TAP	7	144	5
TAP	7	192	3
TAP	7	192	5
TAP	8	0	4
TAP	8	48	3
TAP	8	96	2
TAP	8	96	4
TAP	8	144	3
TAP	8	144	5
TAP	8	192	2
STR	8	192	4
SCR	8	192	4	96	48	7
TAP	8	240	1
TAP	8	288	0
TAP	9	0	3
TAP	9	0	5
TAP	9	48	2
TAP	9	48	4
STR	9	96	3
SCL	9	96	3	96	48	0
TAP	9	96	5
TAP	9	144	6
TAP	9	192	7
TAP	9	288	1
TAP	9	288	6
TAP	10	0	2
TAP	10	48	2
TAP	10	96	5
TAP	10	144	5
STR	10	192	0
SSL	10	192	0	96	96	4
TAP	10	216	7
TAP	10	240	0
TAP	10	264	7
HLD	11	0	7	96
STR	11	96	4
SI_	11	96	4	96	48	0
TAP	11	144	4
TAP	11	192	5
TAP	11	288	2
TAP	11	288	6
TAP	11	336	5
STR	12	0	0
SCR	12	0	0	96	96	7
TAP	12	0	4
TAP	12	96	7
TAP	12	192	0
BRK	12	288	1
BRK	12	288	6
TAP	13	0	0
TAP	13	0	5
TAP	13	48	0
TAP	13	96	3
TAP	13	144	3
STR	13	192	4
SCR	13	192	4	96	48	7
TAP	13	240	4
HLD	13	288	0	96
STR	14	0	7
SCL	14	0	7	96	48	4
TAP	14	48	7
STR	14	96	3
SXL	14	96	3	96	96	3
SXR	14	96	3	96	96	3
TAP	14	144	3
TAP	15	0	1
TAP	15	0	4
TAP	15	48	2
STR	15	96	3
SCL	15	96	3	96	48	0
TAP	15	96	6
TAP	15	144	7
TAP	15	192	6
TAP	15	240	5
TAP	15	288	0
TAP	15	288	4
HLD	16	0	1	96
TAP	16	0	3
TAP	16	48	3
STR	16	96	4
SCR	16	96	4	96	48	7
TAP	16	144	4
TAP	16	192	1
TAP	16	240	2
STR	16	288	3
SF_	16	288	3	96	48	7
TAP	16	288	7
STR	17	96	3
SCL	17	96	3	96	48	0
TAP	17	96	6
TAP	17	144	7
TAP	17	192	6
TAP	17	240	5
TAP	17	288	0
TAP	17	288	4
HLD	18	0	3	48
HLD	18	0	6	48
TAP	18	96	1
STR	18	96	4
SCR	18	96	4	96	48	7
TAP	18	144	0
TAP	18	192	1
TAP	18	240	2
TAP	18	288	3
STR	18	288	7
SCL	18	288	7	96	48	4
TAP	19	0	1
TAP	19	48	2
STR	19	96	3
SCL	19	96	3	96	48	0
TAP	19	96	6
TAP	19	144	7
TAP	19	192	6
TAP	19	240	5
TAP	19	288	0
TAP	19	288	4
TAP	20	0	1
TAP	20	0	6
TAP	20	48	2
STR	20	96	4
SUL	20	96	4	96	144	2
TAP	20	96	5
HLD	20	192	7	96
STR	21	0	3
SUL	21	0	3	96	96	4
TAP	21	0	4
TAP	21	48	5
STR	21	96	4
SCR	21	96	4	96	96	3
SUR	21	96	4	96	96	3
TAP	22	0	3
STR	22	0	4
SUR	22	0	4	96	96	3
TAP	22	48	2
STR	22	96	3
SCL	22	96	3	96	96	4
SUL	22	96	3	96	96	4
STR	23	0	1
SV_	23	0	1	96	96	6
STR	23	96	6
SCR	23	96	6	96	96	1
STR	23	192	1
SUR	23	192	1	96	96	6
STR	23	288	6
SCR	23	288	6	96	96	1
STR	24	0	1
SLR	24	0	1	96	96	5
TAP	24	96	6
TAP	24	144	6
TAP	24	192	7
TAP	24	288	1
TAP	24	288	6
STR	25	0	6
SUL	25	0	6	96	96	7
TAP	25	0	7
TAP	25	48	0
STR	25	96	7
SCR	25	96	7	96	96	6
SUR	25	96	7	96	96	6
TAP	26	0	0
STR	26	0	1
SUR	26	0	1	96	96	0
TAP	26	48	7
STR	26	96	0
SCL	26	96	0	96	96	1
SUL	26	96	0	96	96	1
STR	27	0	3
SI_	27	0	3	96	48	0
TAP	27	0	7
TAP	27	48	3
STR	27	96	4
SI_	27	96	4	96	48	7
TAP	27	144	4
STR	27	192	3
SI_	27	192	3	96	48	1
TAP	27	240	3
STR	27	288	4
SI_	27	288	4	96	48	6
TAP	27	336	4
STR	28	0	3
SI_	28	0	3	96	48	7
TAP	28	48	3
STR	28	96	4
SI_	28	96	4	96	48	0
TAP	28	144	4
TAP	28	192	3
TAP	28	240	3
TAP	28	288	2
TAP	28	288	6
STR	29	0	1
SI_	29	0	1	96	48	5
TAP	29	0	7
TAP	29	48	7
BRK	29	96	1
TAP	29	96	7
TAP	29	144	7
TAP	29	192	7
TAP	29	240	0
TAP	29	240	6
TAP	29	288	1
TAP	29	288	5
TAP	30	0	4
TAP	30	0	6
TAP	30	48	7
TAP	30	96	0
TAP	30	144	1
TAP	30	144	3
STR	30	192	3
SI_	30	192	3	96	48	0
STR	30	192	4
SCL	30	192	4	96	48	1
BRK	30	288	3
BRK	30	288	4
TAP	31	0	7
TAP	31	48	7
TAP	31	96	3
TAP	31	144	3
STR	31	192	5
SCR	31	192	5	96	48	0
TAP	31	240	5
TAP	31	288	3
TAP	32	0	1
TAP	32	0	3
TAP	32	48	0
TAP	32	96	7
TAP	32	144	4
TAP	32	144	6
STR	32	192	3
SI_	32	192	3	96	48	0
STR	32	192	4
SCL	32	192	4	96	48	1
BRK	32	288	3
BRK	32	288	4
TAP	33	0	0
STR	33	0	5
SI_	33	0	5	96	48	1
TAP	33	48	0
TAP	33	96	0
BRK	33	96	5
TAP	33	144	0
TAP	33	192	0
TAP	33	240	1
TAP	33	240	7
TAP	33	288	2
TAP	33	288	6
TAP	34	0	1
TAP	34	0	3
TAP	34	48	0
TAP	34	96	7
TAP	34	144	4
TAP	34	144	6
STR	34	192	3
SI_	34	192	3	96	48	0
STR	34	192	4
SCL	34	192	4	96	48	1
BRK	34	288	3
BRK	34	288	4
TAP	35	0	3
TAP	35	48	4
TAP	35	96	3
TAP	35	96	5
TAP	35	144	2
TAP	35	144	4
STR	35	192	3
SCL	35	192	3	96	48	0
TAP	35	192	5
TAP	35	240	6
TAP	35	288	7
TAP	36	0	2
TAP	36	0	4
TAP	36	48	3
TAP	36	48	5
TAP	36	96	2
TAP	36	96	4
TAP	36	144	1
BRK	36	192	0
BRK	36	240	0
BRK	36	288	1
BRK	36	336	1
TAP	37	0	2
STR	37	0	4
SI_	37	0	4	96	48	6
STR	37	96	1
SI_	37	96	1	96	48	3
TAP	37	96	4
TAP	37	192	1
STR	37	192	4
SCR	37	192	4	96	48	7
STR	37	288	1
SI_	37	288	1	96	48	3
TAP	37	288	4
TAP	38	0	1
STR	38	0	4
SI_	38	0	4	96	48	6
STR	38	96	1
SXL	38	96	1	96	144	0
TAP	38	96	4
TAP	38	192	1
TAP	38	192	4
TAP	38	288	7
TAP	39	0	2
STR	39	0	4
SI_	39	0	4	96	48	6
STR	39	96	1
SI_	39	96	1	96	48	3
TAP	39	96	4
TAP	39	192	1
STR	39	192	4
SCR	39	192	4	96	48	7
TAP	39	288	1
TAP	39	288	4
TAP	40	0	3
TAP	40	0	6
STR	40	96	1
SI_	40	96	1	96	48	5
TAP	40	96	4
TAP	40	144	5
TAP	40	192	1
HLD	40	192	6	96
TAP	40	288	7
STR	41	0	3
SI_	41	0	3	96	48	1
TAP	41	0	5
TAP	41	96	3
STR	41	96	6
SI_	41	96	6	96	48	4
STR	41	192	3
SCL	41	192	3	96	48	0
TAP	41	192	6
TAP	41	288	3
STR	41	288	6
SI_	41	288	6	96	48	4
STR	42	0	3
SI_	42	0	3	96	48	1
TAP	42	0	6
TAP	42	96	3
STR	42	96	6
SXR	42	96	6	96	144	7
TAP	42	192	3
TAP	42	192	6
TAP	42	288	0
STR	43	0	3
SI_	43	0	3	96	48	1
TAP	43	0	5
TAP	43	96	3
STR	43	96	6
SI_	43	96	6	96	48	4
STR	43	192	3
SCL	43	192	3	96	48	0
TAP	43	192	6
TAP	43	288	3
TAP	43	288	6
TAP	44	0	1
TAP	44	0	4
TAP	44	96	3
STR	44	96	6
SI_	44	96	6	96	48	2
HLD	44	192	1	96
TAP	44	192	6
TAP	44	288	0
TAP	45	0	3
TAP	45	0	4
TAP	45	96	2
TAP	45	96	3
TAP	45	192	3
TAP	45	192	4
STR	45	288	4
SLR	45	288	4	96	192	1
HLD	45	288	5	288
BRK	46	288	0
TAP	47	0	7
TAP	47	48	7
TAP	47	96	2
TAP	47	96	6
TAP	47	144	7
TAP	47	192	7
TAP	47	240	7
TAP	47	288	2
TAP	47	288	6
TAP	48	0	3
HLD	48	0	7	288
TAP	48	48	3
TAP	48	96	5
TAP	48	144	3
TAP	48	192	3
TAP	48	240	3
TAP	48	288	1
TAP	49	0	7
TAP	49	48	7
TAP	49	96	2
TAP	49	96	6
TAP	49	144	7
TAP	49	192	7
TAP	49	240	7
TAP	49	288	2
TAP	49	288	6
TAP	50	0	2
HLD	50	0	5	288
TAP	50	48	2
TAP	50	96	4
TAP	50	144	2
TAP	50	192	2
TAP	50	240	2
TAP	50	288	0
HLD	51	0	0	96
TAP	51	0	4
TAP	51	48	4
TAP	51	96	5
TAP	51	144	5
STR	51	192	3
SCL	51	192	3	96	48	1
TAP	51	192	6
TAP	51	240	6
TAP	51	288	7
TAP	52	0	4
TAP	52	48	4
TAP	52	96	2
TAP	52	144	2
TAP	52	192	5
TAP	52	240	5
TAP	52	288	1
TAP	52	288	6
HLD	53	0	1	288
TAP	53	0	3
TAP	53	48	3
TAP	53	96	5
TAP	53	144	5
TAP	53	192	3
TAP	53	240	3
TAP	53	288	7
TAP	54	0	3
TAP	54	48	3
TAP	54	96	5
TAP	54	144	5
TAP	54	192	2
TAP	54	240	2
TAP	54	288	1
TAP	54	288	6
TAP	54	336	7
STR	55	0	1
SI_	55	0	1	96	48	4
STR	55	48	6
SI_	55	48	6	96	48	2
TAP	55	96	1
TAP	55	144	6
TAP	55	192	0
BRK	55	240	2
BRK	55	240	3
BRK	55	288	1
BRK	55	288	2
BRK	55	336	0
STR	56	0	6
SI_	56	0	6	96	48	3
STR	56	48	1
SI_	56	48	1	96	48	5
TAP	56	96	6
TAP	56	144	1
TAP	56	192	7
BRK	56	240	4
BRK	56	240	5
BRK	56	288	5
BRK	56	288	6
BRK	56	336	7
STR	57	0	0
SI_	57	0	0	96	48	4
STR	57	48	5
SI_	57	48	5	96	48	1
TAP	57	96	0
TAP	57	144	5
TAP	57	192	0
BRK	57	240	2
BRK	57	240	3
BRK	57	288	1
BRK	57	288	2
BRK	57	336	0
STR	58	0	7
SI_	58	0	7	96	48	3
STR	58	48	2
SCL	58	48	2	96	48	0
TAP	58	96	7
TAP	58	144	2
TAP	58	192	7
BRK	58	240	4
BRK	58	240	5
BRK	58	288	5
BRK	58	288	6
BRK	58	336	7
STR	59	0	2
SI_	59	0	2	96	48	7
STR	59	48	5
SI_	59	48	5	96	48	1
TAP	59	96	2
TAP	59	144	5
TAP	59	192	0
BRK	59	240	2
BRK	59	240	3
BRK	59	288	1
BRK	59	288	2
BRK	59	336	0
STR	60	0	5
SI_	60	0	5	96	48	0
STR	60	48	2
SI_	60	48	2	96	48	6
TAP	60	96	5
TAP	60	144	2
STR	60	192	7
SF_	60	192	7	96	48	3
STR	61	0	2
SCL	61	0	2	96	48	7
STR	61	48	6
SCL	61	48	6	96	48	3
TAP	61	96	2
TAP	61	144	6
TAP	61	192	0
BRK	61	240	2
BRK	61	240	3
BRK	61	288	1
BRK	61	288	2
BRK	61	336	0
STR	62	0	5
SCR	62	0	5	96	48	0
STR	62	48	1
SCR	62	48	1	96	48	4
TAP	62	96	5
TAP	62	144	1
TAP	62	192	7
BRK	62	240	4
BRK	62	240	5
BRK	62	288	5
BRK	62	288	6
BRK	62	336	7
STR	63	0	1
SI_	63	0	1	96	48	4
TAP	63	0	5
TAP	63	48	6
TAP	63	96	1
TAP	63	96	7
BRK	63	144	7
TAP	63	192	2
STR	63	192	6
SI_	63	192	6	96	48	3
TAP	63	240	1
TAP	63	288	0
TAP	63	288	6
BRK	63	336	0
TAP	64	0	1
TAP	64	0	6
TAP	64	48	2
TAP	64	48	5
STR	64	96	3
SCL	64	96	3	96	48	0
STR	64	96	4
SCR	64	96	4	96	48	7
TAP	64	144	3
TAP	64	144	4
BST	64	288	2
SXR	64	288	2	96	192	5
BRK	64	288	6
TAP	65	0	4
STR	65	96	5
SXL	65	96	5	96	192	2
TAP	65	192	3
STR	65	288	2
SXR	65	288	2	96	192	5
TAP	66	0	4
STR	66	96	5
SXL	66	96	5	96	192	2
TAP	66	192	3
STR	66	288	2
SXR	66	288	2	96	192	5
TAP	67	0	4
STR	67	96	5
SXL	67	96	5	96	192	2
TAP	67	192	3
STR	67	288	2
SXR	67	288	2	96	192	5
TAP	68	0	4
STR	68	96	5
SXL	68	96	5	96	192	2
TAP	68	192	3
STR	68	288	2
SXR	68	288	2	96	192	5
TAP	69	0	4
STR	69	96	5
SXL	69	96	5	96	192	2
TAP	69	192	3
STR	69	288	2
SXR	69	288	2	96	192	5
TAP	70	0	4
STR	70	96	5
SXL	70	96	5	96	192	2
TAP	70	192	3
STR	70	288	2
SXR	70	288	2	96	192	5
TAP	71	0	4
STR	71	96	5
SXL	71	96	5	96	192	2
TAP	71	192	3
STR	71	288	2
SXR	71	288	2	96	192	5
TAP	72	0	4
STR	72	96	5
SXL	72	96	5	96	192	2
TAP	72	192	3
STR	72	288	2
SXR	72	288	2	96	192	5
STR	73	96	7
SCL	73	96	7	96	96	0
BRK	74	0	1
BRK	74	0	6
STR	74	192	1
SI_	74	192	1	96	48	5
TAP	74	192	3
BRK	74	288	1
BRK	74	288	7
TAP	75	0	0
STR	75	0	6
SI_	75	0	6	96	48	2
TAP	75	48	0
TAP	75	96	0
BRK	75	96	6
TAP	75	144	0
TAP	75	192	0
TAP	75	192	1
TAP	75	240	2
TAP	75	240	3
TAP	75	288	3
TAP	75	288	6
TAP	76	0	1
TAP	76	0	3
TAP	76	48	0
TAP	76	96	7
TAP	76	144	4
TAP	76	144	6
STR	76	192	3
SI_	76	192	3	96	48	0
STR	76	192	4
SCL	76	192	4	96	48	1
BRK	76	288	3
BRK	76	288	4
TAP	77	0	0
TAP	77	48	0
TAP	77	96	4
TAP	77	144	4
STR	77	192	2
SCL	77	192	2	96	48	7
TAP	77	240	2
TAP	77	288	4
TAP	78	0	4
TAP	78	0	6
TAP	78	48	7
TAP	78	96	0
TAP	78	144	1
TAP	78	144	3
STR	78	192	3
SI_	78	192	3	96	48	0
STR	78	192	4
SCL	78	192	4	96	48	1
BRK	78	288	3
BRK	78	288	4
STR	79	0	2
SI_	79	0	2	96	48	6
TAP	79	0	7
TAP	79	48	7
BRK	79	96	2
TAP	79	96	7
TAP	79	144	7
TAP	79	192	6
TAP	79	192	7
TAP	79	240	4
TAP	79	240	5
TAP	79	288	1
TAP	79	288	4
TAP	80	0	4
TAP	80	0	6
TAP	80	48	7
TAP	80	96	0
TAP	80	144	1
TAP	80	144	3
STR	80	192	3
SI_	80	192	3	96	48	0
STR	80	192	4
SCL	80	192	4	96	48	1
BRK	80	288	3
BRK	80	288	4
TAP	81	0	3
TAP	81	0	4
TAP	81	48	3
TAP	81	48	4
TAP	81	96	2
TAP	81	120	4
TAP	81	144	2
TAP	81	168	4
TAP	81	192	3
TAP	81	216	5
TAP	81	240	3
TAP	81	264	5
TAP	81	288	2
TAP	81	312	4
TAP	81	336	2
TAP	81	360	4
STR	82	0	2
SCR	82	0	2	96	48	5
TAP	82	24	5
TAP	82	48	2
TAP	82	72	5
TAP	82	96	2
STR	82	192	3
SI_	82	192	3	96	48	0
SI_	82	192	3	96	48	6

T_REC_TAP	429
T_REC_BRK	65
T_REC_XTP	0
T_REC_HLD	16
T_REC_XHO	0
T_REC_STR	117
T_REC_BST	1
T_REC_XST	0
T_REC_TTP	0
T_REC_THO	0
T_REC_SLD	124
T_REC_ALL	752
T_NUM_TAP	546
T_NUM_BRK	66
T_NUM_HLD	16
T_NUM_SLD	124
T_NUM_ALL	752
T_JUDGE_TAP	612
T_JUDGE_HLD	56
T_JUDGE_SLD	124
T_JUDGE_ALL	792
TTM_EACHPAIRS	156
TTM_SCR_TAP	273000
TTM_SCR_BRK	171600
TTM_SCR_HLD	16000
TTM_SCR_SLD	186000
TTM_SCR_ALL	646600
TTM_SCR_S	620800
TTM_SCR_SS	640000
TTM_RAT_ACV	10103

