VERSION	0.00.00	1.03.00
FES_MODE	0
BPM_DEF	150.000	150.000	150.000	150.000
MET_DEF	4	4
RESOLUTION	384
CLK_DEF	384
COMPATIBLE_CODE	MA2

BPM	0	0	150.000

BRK	2	0	1
BRK	2	0	6
BRK	4	0	1
BRK	4	0	3
BRK	5	0	4
BRK	5	0	6
TAP	6	0	5
TAP	6	96	5
TAP	6	192	4
TAP	6	192	5
TAP	6	288	5
TAP	7	0	2
TAP	7	96	2
TAP	7	192	2
TAP	7	192	3
TAP	8	0	4
TAP	8	0	5
TAP	8	96	3
TAP	8	96	4
TAP	8	192	2
TAP	8	192	3
TAP	8	288	1
TAP	9	0	2
TAP	9	0	3
TAP	9	96	3
TAP	9	96	4
TAP	9	192	4
TAP	9	192	5
TAP	9	288	6
TAP	10	0	0
TAP	10	0	7
TAP	10	96	1
TAP	10	96	6
TAP	10	192	2
TAP	10	192	5
TAP	10	288	3
TAP	10	288	4
HLD	11	0	5	192
TAP	11	144	4
TAP	11	192	4
TAP	11	288	3
TAP	11	288	4
HLD	12	0	2	192
TAP	12	144	3
TAP	12	192	3
BRK	12	288	1
BRK	12	288	4
TAP	13	0	2
TAP	13	96	3
TAP	13	192	4
TAP	13	192	5
TAP	13	288	3
TAP	13	288	6
TAP	14	0	5
TAP	14	96	4
TAP	14	192	2
TAP	14	192	3
TAP	14	288	1
TAP	14	288	4
TAP	15	0	2
HLD	15	0	3	192
TAP	15	96	1
TAP	15	192	0
TAP	15	240	0
TAP	15	288	0
HLD	16	0	4	192
TAP	16	0	5
TAP	16	96	6
TAP	16	192	7
TAP	16	240	7
TAP	16	288	7
TAP	17	0	0
HLD	17	0	1	192
TAP	17	96	2
TAP	17	192	3
TAP	17	240	3
TAP	17	288	3
HLD	18	0	6	192
TAP	18	0	7
TAP	18	96	5
TAP	18	192	4
TAP	18	240	4
TAP	18	288	4
TAP	19	0	3
TAP	19	0	4
TAP	19	96	2
TAP	19	96	5
TAP	19	192	0
TAP	19	192	7
TAP	19	240	0
TAP	19	240	7
TAP	19	288	0
TAP	19	288	7
STR	20	0	1
SI_	20	0	1	96	48	3
STR	20	0	6
SI_	20	0	6	96	48	4
BRK	20	192	1
BRK	20	192	6
HLD	21	0	5	288
TAP	21	96	4
TAP	21	192	3
TAP	21	288	4
HLD	22	0	2	288
TAP	22	96	3
TAP	22	192	4
TAP	22	288	3
TAP	23	0	4
HLD	23	0	5	576
TAP	23	96	3
TAP	23	192	4
TAP	23	288	2
TAP	24	0	4
TAP	24	96	1
TAP	24	192	4
TAP	24	288	3
TAP	24	288	6
HLD	25	0	1	288
TAP	25	96	0
TAP	25	192	2
TAP	25	288	0
HLD	26	0	6	288
TAP	26	96	7
TAP	26	192	5
TAP	26	288	7
TAP	27	0	0
TAP	27	0	7
TAP	27	96	1
TAP	27	96	3
TAP	27	192	4
TAP	27	192	6
TAP	27	288	0
TAP	27	288	7
HLD	28	0	1	96
HLD	28	0	6	96
TAP	28	192	1
TAP	28	192	6
TAP	28	240	1
TAP	28	240	6
BRK	28	288	1
BRK	28	288	6
TAP	29	0	5
TAP	29	48	5
TAP	29	96	4
TAP	29	96	6
TAP	29	192	2
TAP	29	240	2
TAP	29	288	1
TAP	29	288	3
TAP	30	0	6
TAP	30	48	6
TAP	30	96	3
TAP	30	144	3
HLD	30	192	4	96
BRK	30	288	0
TAP	31	0	1
TAP	31	48	1
TAP	31	96	3
TAP	31	192	6
TAP	31	240	6
TAP	31	288	4
TAP	32	0	1
TAP	32	48	1
TAP	32	96	4
TAP	32	144	4
HLD	32	192	3	96
BRK	32	288	7
TAP	33	0	5
TAP	33	48	5
TAP	33	96	4
TAP	33	96	6
TAP	33	192	2
TAP	33	240	2
TAP	33	288	1
TAP	33	288	3
TAP	34	0	6
TAP	34	48	6
TAP	34	96	3
TAP	34	144	3
HLD	34	192	4	96
BRK	34	288	0
TAP	35	0	2
TAP	35	0	3
TAP	35	48	2
TAP	35	48	3
TAP	35	96	2
TAP	35	96	3
TAP	35	192	4
TAP	35	192	5
TAP	35	240	4
TAP	35	240	5
TAP	35	288	4
TAP	35	288	5
TAP	36	0	2
TAP	36	0	5
TAP	36	48	2
TAP	36	48	5
TAP	36	96	2
TAP	36	96	5
BRK	36	192	3
BRK	36	192	4
BRK	36	240	3
BRK	36	240	4
BRK	36	288	3
BRK	36	288	4
BRK	36	336	3
BRK	36	336	4
TAP	37	0	3
STR	37	0	4
SCR	37	0	4	96	96	7
TAP	37	288	0
TAP	37	288	7
STR	38	0	0
SUL	38	0	0	96	96	3
TAP	38	0	1
TAP	38	288	2
TAP	38	288	3
STR	39	0	4
SUL	39	0	4	96	96	7
TAP	39	0	5
TAP	39	288	6
TAP	39	288	7
TAP	40	0	0
TAP	40	0	1
TAP	40	96	2
TAP	40	96	3
BRK	40	192	1
BRK	40	192	4
STR	41	0	6
SUR	41	0	6	96	96	3
STR	41	0	7
SCR	41	0	7	96	96	2
TAP	41	288	4
TAP	41	288	5
STR	42	0	6
SCL	42	0	6	96	96	3
STR	42	0	7
SUL	42	0	7	96	96	2
TAP	42	288	2
TAP	42	288	3
STR	43	0	0
SUR	43	0	0	96	96	5
STR	43	0	1
SCR	43	0	1	96	96	4
TAP	43	288	0
TAP	43	288	7
TAP	44	0	2
TAP	44	0	5
TAP	44	96	3
TAP	44	96	4
BRK	44	192	1
BRK	44	192	6
TAP	45	0	4
HLD	45	0	5	192
TAP	45	96	6
TAP	45	192	4
TAP	45	288	3
TAP	45	288	4
HLD	46	0	2	192
TAP	46	0	3
TAP	46	96	1
TAP	46	192	3
BRK	46	288	0
BRK	46	288	7
TAP	47	0	1
STR	47	0	6
SI_	47	0	6	96	48	4
TAP	47	192	2
TAP	47	240	2
TAP	47	288	2
TAP	47	288	3
STR	48	0	1
SI_	48	0	1	96	48	3
TAP	48	0	6
TAP	48	192	5
TAP	48	240	5
TAP	48	288	4
TAP	48	288	5
TAP	49	0	1
STR	49	0	6
SI_	49	0	6	96	48	3
TAP	49	192	2
TAP	49	240	2
TAP	49	288	2
TAP	49	288	3
STR	50	0	1
SI_	50	0	1	96	48	4
TAP	50	0	6
TAP	50	192	5
TAP	50	240	5
TAP	50	288	4
TAP	50	288	5
HLD	51	0	1	96
HLD	51	0	3	96
TAP	51	192	7
TAP	51	240	7
TAP	51	288	0
TAP	51	288	7
HLD	52	0	4	96
HLD	52	0	6	96
TAP	52	192	0
TAP	52	240	0
TAP	52	288	0
TAP	52	288	7
HLD	53	0	2	96
HLD	53	0	3	96
TAP	53	192	6
TAP	53	240	6
TAP	53	288	6
TAP	53	288	7
HLD	54	0	4	96
HLD	54	0	5	96
TAP	54	192	1
TAP	54	240	1
TAP	54	288	0
TAP	54	288	1
HLD	55	0	5	96
HLD	55	96	6	96
TAP	55	192	7
BRK	55	240	7
BRK	55	288	7
BRK	55	336	7
HLD	56	0	2	96
HLD	56	96	1	96
TAP	56	192	0
BRK	56	240	0
BRK	56	288	0
BRK	56	336	0
HLD	57	0	4	96
HLD	57	96	6	96
TAP	57	192	7
BRK	57	240	7
BRK	57	288	7
BRK	57	336	7
HLD	58	0	3	96
HLD	58	96	1	96
TAP	58	192	0
BRK	58	240	0
BRK	58	288	0
BRK	58	336	0
HLD	59	0	6	96
HLD	59	96	4	96
TAP	59	192	3
BRK	59	240	3
BRK	59	288	3
BRK	59	336	3
HLD	60	0	1	96
HLD	60	96	3	96
BST	60	192	4
SI_	60	192	4	96	48	0
HLD	61	0	6	96
HLD	61	96	4	96
TAP	61	192	0
BRK	61	240	0
BRK	61	288	0
BRK	61	336	0
HLD	62	0	1	96
HLD	62	96	3	96
TAP	62	192	7
BRK	62	240	7
BRK	62	288	7
BRK	62	336	7
TAP	63	0	0
BST	63	0	6
SI_	63	0	6	96	48	3
BST	63	192	1
SI_	63	192	1	96	48	4
BST	64	0	6
SCR	64	0	6	96	96	3
BRK	64	288	0
BRK	64	288	7
TAP	65	0	3
HLD	65	0	6	96
TAP	65	96	4
HLD	65	192	1	96
TAP	65	192	4
TAP	65	288	3
TAP	66	0	2
HLD	66	0	6	96
TAP	66	96	4
HLD	66	192	1	96
TAP	66	192	5
TAP	66	288	3
TAP	67	0	4
HLD	67	0	6	96
TAP	67	96	5
HLD	67	192	1	96
TAP	67	192	3
TAP	67	288	2
TAP	68	0	0
STR	68	0	7
SCL	68	0	7	96	96	3
SUL	68	0	7	96	96	3
TAP	68	288	1
TAP	68	288	4
TAP	69	0	2
HLD	69	0	5	96
TAP	69	96	4
HLD	69	192	2	96
TAP	69	192	5
TAP	69	288	3
TAP	70	0	3
HLD	70	0	6	96
TAP	70	96	5
HLD	70	192	1	96
TAP	70	192	4
TAP	70	288	2
TAP	71	0	4
HLD	71	0	6	96
TAP	71	96	7
HLD	71	192	1	96
TAP	71	192	3
TAP	71	288	0
TAP	72	0	0
TAP	72	0	7
TAP	72	96	5
TAP	72	96	6
TAP	72	192	3
TAP	72	192	4
TAP	72	288	1
STR	72	288	2
SCR	72	288	2	96	288	0
BRK	74	0	1
BRK	74	0	6
TAP	75	0	2
TAP	75	48	3
TAP	75	96	1
TAP	75	96	4
TAP	75	192	5
TAP	75	240	4
TAP	75	288	3
TAP	75	288	6
TAP	76	0	1
TAP	76	48	1
TAP	76	96	4
TAP	76	144	4
STR	76	192	3
SI_	76	192	3	96	48	0
BRK	76	288	7
TAP	77	0	5
TAP	77	48	5
TAP	77	96	6
TAP	77	96	7
TAP	77	192	2
TAP	77	240	2
TAP	77	288	0
TAP	77	288	1
TAP	78	0	6
TAP	78	48	6
TAP	78	96	3
TAP	78	144	3
STR	78	192	4
SI_	78	192	4	96	48	7
BRK	78	288	0
TAP	79	0	1
TAP	79	48	0
TAP	79	96	2
TAP	79	96	7
TAP	79	192	6
TAP	79	240	7
TAP	79	288	0
TAP	79	288	5
TAP	80	0	1
TAP	80	0	6
TAP	80	48	1
TAP	80	48	6
TAP	80	96	0
TAP	80	96	7
TAP	80	144	0
TAP	80	144	7
BST	80	192	0
SI_	80	192	0	96	48	2
BST	80	192	7
SI_	80	192	7	96	48	5
TAP	81	0	4
TAP	81	0	5
TAP	81	48	4
TAP	81	48	5
TAP	81	96	4
TAP	81	96	5
TAP	81	144	4
TAP	81	144	5
TAP	81	192	3
TAP	81	192	4
TAP	81	240	3
TAP	81	240	4
TAP	81	288	3
TAP	81	288	4
TAP	81	336	3
TAP	81	336	4
TAP	82	0	2
TAP	82	0	3
TAP	82	48	2
TAP	82	48	3
TAP	82	96	2
TAP	82	96	3
TAP	82	144	2
TAP	82	144	3
BRK	82	192	2
BST	82	192	3
SI_	82	192	3	96	96	0
SI_	82	192	3	96	96	6

T_REC_TAP	337
T_REC_BRK	57
T_REC_XTP	0
T_REC_HLD	54
T_REC_XHO	0
T_REC_STR	19
T_REC_BST	7
T_REC_XST	0
T_REC_TTP	0
T_REC_THO	0
T_REC_SLD	28
T_REC_ALL	502
T_NUM_TAP	356
T_NUM_BRK	64
T_NUM_HLD	54
T_NUM_SLD	28
T_NUM_ALL	502
T_JUDGE_TAP	420
T_JUDGE_HLD	150
T_JUDGE_SLD	28
T_JUDGE_ALL	598
TTM_EACHPAIRS	142
TTM_SCR_TAP	178000
TTM_SCR_BRK	166400
TTM_SCR_HLD	54000
TTM_SCR_SLD	42000
TTM_SCR_ALL	440400
TTM_SCR_S	421000
TTM_SCR_SS	434000
TTM_RAT_ACV	10147

