VERSION	0.00.00	1.03.00
FES_MODE	0
BPM_DEF	150.000	150.000	150.000	150.000
MET_DEF	4	4
RESOLUTION	384
CLK_DEF	384
COMPATIBLE_CODE	MA2

BPM	0	0	150.000

HLD	2	0	0	576
HLD	2	0	7	576
HLD	4	0	6	192
HLD	4	0	7	192
HLD	5	0	0	192
HLD	5	0	1	192
HLD	6	0	4	192
HLD	6	0	5	192
HLD	7	0	2	192
HLD	7	0	3	192
TAP	8	0	4
TAP	8	96	4
TAP	8	192	3
TAP	8	288	3
TAP	9	0	3
TAP	9	0	4
TAP	9	96	2
TAP	9	96	5
TAP	9	192	1
TAP	9	192	6
BRK	9	288	0
BRK	9	288	7
STR	10	0	0
SI_	10	0	0	96	192	3
STR	10	0	7
SI_	10	0	7	96	192	4
TAP	11	0	5
TAP	11	96	4
TAP	11	192	3
TAP	11	288	4
TAP	12	0	2
TAP	12	96	3
TAP	12	192	4
BRK	12	288	3
TAP	13	0	5
TAP	13	96	4
TAP	13	192	3
TAP	13	288	4
TAP	14	0	5
TAP	14	96	4
TAP	14	192	3
TAP	14	192	4
TAP	15	0	2
TAP	15	96	3
TAP	15	192	4
TAP	15	192	5
TAP	16	0	5
TAP	16	96	4
TAP	16	192	2
TAP	16	192	3
TAP	17	0	1
TAP	17	96	0
TAP	17	192	6
TAP	17	192	7
TAP	18	0	6
TAP	18	96	7
TAP	18	192	0
TAP	18	192	1
TAP	19	0	2
TAP	19	96	3
TAP	19	192	3
TAP	19	192	4
BRK	20	0	2
BRK	20	0	5
TAP	20	192	3
TAP	20	192	4
TAP	20	288	3
TAP	20	288	4
TAP	21	0	2
TAP	21	96	3
TAP	21	192	2
TAP	21	192	3
TAP	21	288	2
TAP	21	288	3
TAP	22	0	5
TAP	22	96	4
TAP	22	192	4
TAP	22	192	5
TAP	22	288	4
TAP	22	288	5
TAP	23	0	6
TAP	23	96	7
TAP	23	192	0
TAP	23	288	1
TAP	24	0	0
TAP	24	0	7
TAP	24	96	0
TAP	24	96	7
BRK	24	192	1
BRK	24	192	6
TAP	25	0	6
TAP	25	96	7
TAP	25	192	6
TAP	25	192	7
TAP	25	288	6
TAP	25	288	7
TAP	26	0	1
TAP	26	96	0
TAP	26	192	0
TAP	26	192	1
TAP	26	288	0
TAP	26	288	1
TAP	27	0	2
TAP	27	96	3
TAP	27	192	4
TAP	27	288	5
TAP	28	0	3
TAP	28	0	4
TAP	28	96	3
TAP	28	96	4
BRK	28	192	2
BRK	28	192	5
TAP	29	0	0
TAP	29	0	1
TAP	29	96	6
TAP	29	96	7
TAP	29	192	0
TAP	29	240	0
BRK	29	288	0
TAP	30	0	6
TAP	30	0	7
TAP	30	96	0
TAP	30	144	0
TAP	30	192	0
BRK	30	288	7
TAP	31	0	6
TAP	31	0	7
TAP	31	96	0
TAP	31	96	1
TAP	31	192	7
TAP	31	240	7
BRK	31	288	7
TAP	32	0	0
TAP	32	0	1
TAP	32	96	7
TAP	32	144	7
TAP	32	192	7
BRK	32	288	0
TAP	33	0	2
TAP	33	0	3
TAP	33	96	4
TAP	33	96	5
TAP	33	192	3
TAP	33	240	3
BRK	33	288	3
TAP	34	0	4
TAP	34	0	5
TAP	34	96	3
TAP	34	144	3
TAP	34	192	3
BRK	34	288	4
TAP	35	0	4
TAP	35	0	5
TAP	35	96	2
TAP	35	96	3
TAP	35	192	4
TAP	35	240	4
BRK	35	288	4
TAP	36	0	3
TAP	36	48	3
TAP	36	96	3
TAP	36	192	3
TAP	36	192	4
TAP	36	288	2
TAP	36	288	5
STR	37	0	2
SI_	37	0	2	96	192	7
STR	38	0	6
SI_	38	0	6	96	192	3
STR	39	0	1
SI_	39	0	1	96	192	4
STR	40	0	5
SI_	40	0	5	96	192	0
STR	41	0	2
SI_	41	0	2	96	192	7
STR	41	0	3
SI_	41	0	3	96	192	6
STR	42	0	4
SI_	42	0	4	96	192	1
STR	42	0	5
SI_	42	0	5	96	192	0
STR	43	0	0
SI_	43	0	0	96	192	3
STR	43	0	7
SI_	43	0	7	96	192	4
TAP	44	0	3
TAP	44	0	4
TAP	44	96	3
TAP	44	96	4
TAP	44	192	2
TAP	44	192	5
HLD	45	0	2	192
HLD	45	192	3	192
HLD	46	0	4	192
TAP	46	192	5
BRK	46	288	4
BRK	46	288	5
TAP	47	0	2
TAP	47	96	3
TAP	47	192	2
TAP	47	288	2
TAP	47	288	3
TAP	48	0	5
TAP	48	96	4
TAP	48	192	5
TAP	48	288	4
TAP	48	288	5
TAP	49	0	2
TAP	49	96	2
TAP	49	192	3
TAP	49	288	2
TAP	49	288	4
TAP	50	0	5
TAP	50	96	5
TAP	50	192	4
TAP	50	288	3
TAP	50	288	5
TAP	51	0	1
TAP	51	96	0
TAP	51	192	1
TAP	51	288	0
TAP	51	288	1
TAP	52	0	6
TAP	52	96	7
TAP	52	192	6
TAP	52	288	6
TAP	52	288	7
TAP	53	0	1
TAP	53	96	1
TAP	53	192	0
TAP	53	288	1
TAP	53	288	7
TAP	54	0	6
TAP	54	96	6
TAP	54	192	7
TAP	54	288	0
TAP	54	288	6
HLD	55	0	2	96
TAP	55	96	3
TAP	55	192	1
TAP	55	192	4
HLD	56	0	5	96
TAP	56	96	4
TAP	56	192	3
TAP	56	192	6
HLD	57	0	1	96
TAP	57	96	0
TAP	57	192	2
TAP	57	192	7
HLD	58	0	6	96
TAP	58	96	7
TAP	58	192	0
TAP	58	192	5
HLD	59	0	2	96
TAP	59	96	3
TAP	59	192	4
TAP	59	192	5
HLD	60	0	5	96
TAP	60	96	4
TAP	60	192	2
TAP	60	192	3
HLD	61	0	1	96
TAP	61	96	0
TAP	61	192	6
TAP	61	192	7
HLD	62	0	6	96
TAP	62	96	7
TAP	62	192	0
TAP	62	192	1
HLD	63	0	6	96
HLD	63	0	7	96
HLD	63	192	0	96
HLD	63	192	1	96
TAP	64	0	0
TAP	64	0	7
TAP	64	96	0
TAP	64	96	7
BRK	64	192	1
BRK	64	192	6
HLD	65	0	5	192
HLD	65	192	4	192
HLD	66	0	3	192
TAP	66	192	2
HLD	67	0	2	192
HLD	67	192	3	192
HLD	68	0	4	192
TAP	68	192	5
HLD	69	0	6	192
HLD	69	192	7	192
HLD	70	0	0	192
TAP	70	192	1
HLD	71	0	1	192
HLD	71	192	0	192
HLD	72	0	7	192
TAP	72	192	6
STR	73	0	4
SCL	73	0	4	96	192	1
STR	73	0	5
SCR	73	0	5	96	192	0
BRK	74	0	0
BRK	74	0	1
TAP	75	0	0
TAP	75	0	1
TAP	75	96	2
TAP	75	96	7
TAP	75	192	6
TAP	75	240	6
BRK	75	288	6
TAP	76	0	6
TAP	76	0	7
TAP	76	96	0
TAP	76	144	0
TAP	76	192	0
BRK	76	288	7
TAP	77	0	6
TAP	77	0	7
TAP	77	96	0
TAP	77	96	5
TAP	77	192	1
TAP	77	240	1
BRK	77	288	1
TAP	78	0	0
TAP	78	0	1
TAP	78	96	7
TAP	78	144	7
TAP	78	192	7
BRK	78	288	0
TAP	79	0	2
TAP	79	0	3
TAP	79	96	1
TAP	79	96	4
TAP	79	192	5
TAP	79	240	5
BRK	79	288	5
TAP	80	0	4
TAP	80	0	5
TAP	80	96	3
TAP	80	144	3
TAP	80	192	3
BRK	80	288	4
TAP	81	0	2
TAP	81	0	3
TAP	81	96	4
TAP	81	96	5
TAP	81	192	3
TAP	81	240	3
TAP	81	288	3
TAP	82	0	3
TAP	82	0	4
TAP	82	48	3
TAP	82	48	4
TAP	82	96	3
TAP	82	96	4
TAP	82	192	2
TAP	82	192	5
BRK	82	288	1

T_REC_TAP	262
T_REC_BRK	29
T_REC_XTP	0
T_REC_HLD	37
T_REC_XHO	0
T_REC_STR	14
T_REC_BST	0
T_REC_XST	0
T_REC_TTP	0
T_REC_THO	0
T_REC_SLD	14
T_REC_ALL	356
T_NUM_TAP	276
T_NUM_BRK	29
T_NUM_HLD	37
T_NUM_SLD	14
T_NUM_ALL	356
T_JUDGE_TAP	305
T_JUDGE_HLD	140
T_JUDGE_SLD	14
T_JUDGE_ALL	459
TTM_EACHPAIRS	91
TTM_SCR_TAP	138000
TTM_SCR_BRK	75400
TTM_SCR_HLD	37000
TTM_SCR_SLD	21000
TTM_SCR_ALL	271400
TTM_SCR_S	260450
TTM_SCR_SS	268500
TTM_RAT_ACV	10108

