VERSION	0.00.00	1.03.00
FES_MODE	0
BPM_DEF	150.000	150.000	150.000	150.000
MET_DEF	4	4
RESOLUTION	384
CLK_DEF	384
COMPATIBLE_CODE	MA2

BPM	0	0	150.000

TAP	2	0	0
TAP	2	192	0
TAP	3	0	0
TAP	3	96	0
TAP	3	192	0
TAP	4	0	7
TAP	4	192	7
TAP	5	0	7
TAP	5	96	7
TAP	5	192	7
TAP	6	0	0
TAP	6	192	0
TAP	7	0	0
TAP	7	96	0
TAP	7	192	0
TAP	8	0	7
TAP	8	192	7
TAP	9	0	7
TAP	9	96	7
BRK	9	192	7
STR	10	0	0
SI_	10	0	0	96	288	3
HLD	12	0	4	192
TAP	13	0	3
TAP	13	192	3
TAP	14	0	2
TAP	14	96	2
TAP	14	192	2
TAP	15	0	1
TAP	15	192	1
TAP	16	0	0
TAP	16	96	7
TAP	16	192	0
TAP	17	0	7
TAP	17	192	7
TAP	18	0	6
TAP	18	96	6
TAP	18	192	6
TAP	19	0	5
TAP	19	192	5
TAP	20	0	4
TAP	20	96	3
TAP	20	192	4
HLD	21	0	5	192
HLD	22	0	6	192
HLD	23	0	7	192
HLD	24	0	0	192
HLD	25	0	1	192
HLD	26	0	2	192
TAP	27	0	3
TAP	27	96	3
TAP	27	192	3
TAP	27	192	4
TAP	28	0	4
TAP	28	96	4
BRK	28	192	3
BRK	28	192	4
TAP	29	0	3
TAP	29	96	3
TAP	29	192	3
TAP	30	0	3
TAP	30	96	3
TAP	30	192	3
TAP	31	0	2
TAP	31	96	2
TAP	31	192	2
TAP	32	0	2
TAP	32	96	2
TAP	32	192	2
TAP	33	0	1
TAP	33	96	1
TAP	33	192	1
TAP	34	0	1
TAP	34	96	1
TAP	34	192	1
TAP	35	0	0
TAP	35	96	0
TAP	35	192	0
TAP	36	0	0
TAP	36	96	0
TAP	36	192	0
STR	37	0	7
SI_	37	0	7	96	288	4
STR	39	0	0
SI_	39	0	0	96	288	3
STR	41	0	7
SI_	41	0	7	96	288	3
STR	43	0	0
SI_	43	0	0	96	288	4
TAP	45	0	7
TAP	45	192	7
TAP	46	0	0
TAP	46	96	0
BRK	46	192	0
HLD	47	0	1	192
TAP	48	0	1
TAP	48	96	1
BRK	48	192	1
HLD	49	0	2	192
TAP	50	0	2
TAP	50	96	2
BRK	50	192	2
HLD	51	0	3	192
TAP	52	0	3
TAP	52	96	3
BRK	52	192	3
HLD	53	0	4	192
TAP	54	0	4
TAP	54	96	4
BRK	54	192	4
HLD	55	0	5	192
HLD	56	0	6	192
HLD	57	0	7	192
HLD	58	0	0	192
TAP	59	0	7
TAP	59	96	7
TAP	59	192	7
TAP	60	0	0
TAP	60	96	0
TAP	60	192	0
TAP	61	0	7
TAP	61	96	7
TAP	61	192	0
TAP	61	192	7
TAP	62	0	0
TAP	62	96	0
TAP	62	192	0
TAP	62	192	7
BRK	63	0	0
BRK	63	0	7
BRK	63	192	0
BRK	63	192	7
TAP	64	0	0
TAP	64	0	7
TAP	64	96	0
TAP	64	96	7
BRK	64	192	1
BRK	64	192	6
STR	65	0	0
SI_	65	0	0	96	288	3
STR	67	0	7
SI_	67	0	7	96	288	4
STR	69	0	1
SI_	69	0	1	96	288	4
STR	71	0	6
SI_	71	0	6	96	288	3
HLD	73	0	3	384
HLD	73	0	4	384
TAP	75	0	3
TAP	75	96	3
TAP	75	192	3
TAP	76	0	3
TAP	76	96	3
TAP	76	192	3
BRK	76	288	3
TAP	77	0	2
TAP	77	96	2
TAP	77	192	2
TAP	78	0	2
TAP	78	96	2
TAP	78	192	2
BRK	78	288	2
TAP	79	0	1
TAP	79	96	1
TAP	79	192	1
TAP	80	0	1
TAP	80	96	1
TAP	80	192	1
BRK	80	288	1
TAP	81	0	0
TAP	81	96	0
TAP	81	192	0
TAP	81	288	0
TAP	82	0	7
TAP	82	96	7
TAP	82	192	7
BRK	82	288	0
BRK	82	288	7

T_REC_TAP	124
T_REC_BRK	19
T_REC_XTP	0
T_REC_HLD	17
T_REC_XHO	0
T_REC_STR	9
T_REC_BST	0
T_REC_XST	0
T_REC_TTP	0
T_REC_THO	0
T_REC_SLD	9
T_REC_ALL	178
T_NUM_TAP	133
T_NUM_BRK	19
T_NUM_HLD	17
T_NUM_SLD	9
T_NUM_ALL	178
T_JUDGE_TAP	152
T_JUDGE_HLD	76
T_JUDGE_SLD	9
T_JUDGE_ALL	237
TTM_EACHPAIRS	11
TTM_SCR_TAP	66500
TTM_SCR_BRK	49400
TTM_SCR_HLD	17000
TTM_SCR_SLD	13500
TTM_SCR_ALL	146400
TTM_SCR_S	140200
TTM_SCR_SS	144500
TTM_RAT_ACV	10131

