VERSION	0.00.00	1.03.00
FES_MODE	0
BPM_DEF	210.000	210.000	210.000	210.000
MET_DEF	4	4
RESOLUTION	384
CLK_DEF	384
COMPATIBLE_CODE	MA2

BPM	0	0	210.000

TAP	1	288	3
TAP	1	312	4
TAP	1	336	3
TAP	1	360	4
HLD	2	0	2	144
STR	2	144	3
SUR	2	144	3	96	336	1
HLD	2	288	2	192
TAP	3	192	3
TAP	3	288	3
HLD	4	0	4	144
STR	4	144	3
SUL	4	144	3	96	336	5
HLD	4	288	4	192
TAP	5	192	4
TAP	5	288	3
HLD	6	0	2	384
TAP	6	96	3
TAP	6	144	3
TAP	6	288	4
TAP	7	0	5
HLD	7	16	4	128
HLD	7	144	3	144
STR	7	288	5
SCR	7	288	5	96	288	2
HLD	8	0	4	288
STR	9	0	1
SV_	9	0	1	96	48	0
STR	9	0	6
SV_	9	0	6	96	48	7
TAP	9	192	1
TAP	9	192	6
TAP	9	216	2
TAP	9	216	5
TAP	9	240	3
TAP	9	240	4
BRK	9	288	1
BRK	9	288	6
TAP	10	0	3
TAP	10	0	6
TAP	10	96	2
TAP	10	96	4
TAP	10	144	2
STR	10	144	4
SI_	10	144	4	96	48	7
STR	10	240	1
SI_	10	240	1	96	48	4
TAP	10	336	0
TAP	11	48	7
TAP	11	96	6
TAP	11	144	0
STR	11	144	5
SI_	11	144	5	96	48	2
TAP	11	240	0
TAP	11	288	0
TAP	11	336	1
TAP	12	0	2
TAP	12	0	4
TAP	12	96	3
TAP	12	96	5
STR	12	144	3
SI_	12	144	3	96	48	0
TAP	12	144	5
STR	12	240	6
SI_	12	240	6	96	48	3
TAP	12	336	7
TAP	13	48	0
TAP	13	96	1
STR	13	144	2
SI_	13	144	2	96	48	5
TAP	13	144	7
STR	13	240	6
SI_	13	240	6	96	48	1
HLD	13	336	3	144
TAP	14	96	5
STR	14	144	5
SI_	14	144	5	96	48	0
STR	14	240	2
SI_	14	240	2	96	48	5
HLD	14	336	7	144
TAP	15	96	3
STR	15	144	1
SI_	15	144	1	96	48	4
STR	15	144	5
SI_	15	144	5	96	48	0
TAP	15	336	3
TAP	15	336	7
TAP	15	360	2
TAP	15	360	6
HLD	16	0	1	288
STR	16	0	5
SCL	16	0	5	96	192	7
TAP	17	0	0
TAP	17	32	0
TAP	17	64	0
TAP	17	96	7
TAP	17	128	7
TAP	17	160	7
TAP	17	192	0
TAP	17	192	6
TAP	17	216	1
TAP	17	216	5
TAP	17	240	2
TAP	17	240	4
BRK	17	288	0
BRK	17	288	6
STR	18	0	0
SI_	18	0	0	96	48	4
TAP	18	48	7
TAP	18	96	6
STR	18	144	5
SI_	18	144	5	96	48	1
TAP	18	192	6
TAP	18	240	7
TAP	18	288	0
TAP	19	0	2
STR	19	0	6
SI_	19	0	6	96	48	4
STR	19	96	0
SI_	19	96	0	96	48	2
SI_	19	96	0	96	48	6
TAP	19	96	6
STR	19	192	0
SI_	19	192	0	96	48	4
TAP	19	288	0
TAP	19	288	5
STR	20	0	7
SI_	20	0	7	96	48	3
TAP	20	48	0
TAP	20	96	1
STR	20	144	2
SI_	20	144	2	96	48	6
TAP	20	192	1
TAP	20	240	0
TAP	20	288	7
TAP	21	0	0
TAP	21	0	5
TAP	21	48	1
TAP	21	96	2
TAP	21	96	6
TAP	21	144	5
TAP	21	192	1
TAP	21	192	4
TAP	21	240	2
TAP	21	264	3
TAP	21	288	2
TAP	21	312	3
TAP	21	336	2
TAP	21	360	3
HLD	22	0	1	72
BRK	22	0	4
TAP	22	72	0
TAP	22	144	2
TAP	22	144	7
BRK	22	288	0
HLD	22	288	5	72
TAP	22	360	4
TAP	23	48	3
TAP	23	48	6
BRK	23	192	0
HLD	23	196	7	0
HLD	23	264	1	0
TAP	23	264	6
TAP	23	336	2
HLD	23	336	5	0
BRK	24	0	3
TAP	24	0	4
TAP	24	24	2
TAP	24	48	1
TAP	24	72	0
TAP	24	96	3
TAP	24	120	4
TAP	24	144	5
TAP	24	168	6
TAP	24	192	0
TAP	24	216	1
TAP	24	240	2
TAP	24	264	3
TAP	24	288	0
TAP	24	312	7
TAP	24	336	6
TAP	24	360	5
BRK	25	0	3
TAP	25	0	4
TAP	25	24	2
TAP	25	48	1
TAP	25	72	0
TAP	25	96	6
TAP	25	96	7
TAP	25	120	5
TAP	25	144	4
TAP	25	168	3
BRK	25	192	0
TAP	25	216	1
TAP	25	240	2
TAP	25	264	3
TAP	25	288	4
TAP	25	288	5
TAP	25	312	6
TAP	25	336	7
TAP	25	360	0
BST	26	0	1
SCR	26	0	1	96	1344	1
TAP	26	0	2
HLD	27	0	1	0
HLD	28	0	7	0
HLD	29	0	5	0
HLD	30	0	1	288
TAP	30	0	3
HLD	30	192	3	288
HLD	31	0	2	288
HLD	31	192	5	96
STR	32	0	4
SI_	32	0	4	96	300	0
HLD	32	0	5	288
TAP	33	0	5
STR	33	12	4
SI_	33	12	4	96	36	0
TAP	33	192	1
TAP	33	192	7
TAP	33	208	2
TAP	33	208	6
TAP	33	224	3
TAP	33	224	5
TAP	33	240	4
BRK	33	288	2
BRK	33	288	6
STR	34	0	0
SI_	34	0	0	96	48	4
STR	34	48	4
SLL	34	48	4	96	96	0
TAP	34	96	0
TAP	34	144	6
TAP	34	192	6
TAP	34	240	5
TAP	34	288	1
TAP	34	288	4
TAP	35	0	2
STR	35	0	7
SI_	35	0	7	96	48	4
STR	35	96	1
SI_	35	96	1	96	48	3
SI_	35	96	1	96	48	7
TAP	35	96	7
STR	35	192	1
SI_	35	192	1	96	48	5
TAP	35	288	1
TAP	35	288	5
STR	36	0	7
SI_	36	0	7	96	48	3
STR	36	48	3
SLR	36	48	3	96	96	7
TAP	36	96	7
TAP	36	144	1
TAP	36	192	1
TAP	36	240	2
TAP	36	288	3
TAP	36	288	6
STR	37	0	0
SI_	37	0	0	96	48	3
TAP	37	0	5
TAP	37	96	0
STR	37	96	6
SI_	37	96	6	96	48	0
SI_	37	96	6	96	48	4
STR	37	192	6
SI_	37	192	6	96	48	2
TAP	37	288	2
TAP	37	288	6
TAP	38	0	0
TAP	38	24	1
TAP	38	48	2
TAP	38	72	3
TAP	38	96	7
TAP	38	120	6
TAP	38	144	5
TAP	38	168	4
TAP	38	192	7
TAP	38	216	0
TAP	38	240	1
TAP	38	264	2
TAP	38	288	0
TAP	38	312	7
TAP	38	336	6
TAP	38	360	5
TAP	39	0	1
TAP	39	0	4
TAP	39	24	2
TAP	39	48	3
TAP	39	72	4
TAP	39	96	5
TAP	39	120	6
TAP	39	144	7
TAP	39	168	0
TAP	39	192	1
TAP	39	192	5
TAP	39	216	4
TAP	39	240	3
TAP	39	264	2
TAP	39	288	1
TAP	39	312	0
TAP	39	336	7
TAP	39	360	6
STR	40	0	2
SI_	40	0	2	96	48	7
TAP	40	0	5
TAP	40	96	5
STR	40	144	5
SI_	40	144	5	96	48	2
STR	40	240	0
SI_	40	240	0	96	48	4
TAP	40	336	5
TAP	41	48	3
TAP	41	96	2
TAP	41	96	4
STR	41	144	1
SI_	41	144	1	96	48	5
TAP	41	144	5
TAP	41	240	0
TAP	41	240	1
STR	42	0	6
SI_	42	0	6	96	48	2
STR	42	48	2
SLR	42	48	2	96	96	6
TAP	42	96	6
TAP	42	144	0
TAP	42	192	0
TAP	42	240	1
TAP	42	288	2
TAP	42	288	7
STR	43	0	1
SCR	43	0	1	96	48	4
TAP	43	0	5
TAP	43	96	1
STR	43	96	7
SCL	43	96	7	96	48	5
SCR	43	96	7	96	48	1
STR	43	192	7
SI_	43	192	7	96	48	3
TAP	43	288	3
TAP	43	288	7
STR	44	0	1
SI_	44	0	1	96	48	5
STR	44	48	5
SLL	44	48	5	96	96	1
TAP	44	96	1
TAP	44	144	7
TAP	44	192	7
TAP	44	240	6
TAP	44	288	0
TAP	44	288	5
TAP	45	0	3
STR	45	0	7
SCL	45	0	7	96	96	3
TAP	45	96	2
TAP	45	128	1
TAP	45	160	0
TAP	45	192	7
TAP	45	288	0
TAP	45	288	4
TAP	46	0	2
BRK	46	0	6
TAP	46	32	5
TAP	46	64	4
TAP	46	96	0
TAP	46	96	3
TAP	46	128	1
TAP	46	160	2
TAP	46	192	3
TAP	46	192	7
TAP	46	224	6
TAP	46	256	5
TAP	46	288	1
TAP	46	288	4
TAP	46	320	2
TAP	46	352	3
TAP	47	0	4
TAP	47	0	7
TAP	47	32	6
TAP	47	64	5
STR	47	96	1
SI_	47	96	1	96	48	4
TAP	47	96	4
TAP	47	192	0
TAP	47	288	2
TAP	47	288	6
HLD	48	0	6	72
TAP	48	72	7
TAP	48	144	1
TAP	48	144	4
HLD	48	192	1	72
TAP	48	264	0
TAP	48	336	3
TAP	48	336	6
TAP	49	0	5
TAP	49	24	4
TAP	49	48	5
TAP	49	72	4
TAP	49	96	7
TAP	49	120	0
TAP	49	144	7
TAP	49	168	0
TAP	49	192	3
TAP	49	216	2
TAP	49	240	3
TAP	49	264	2
BRK	49	288	1
BRK	49	288	4
TAP	50	0	3
BST	50	0	6
SI_	50	0	6	96	48	3
TAP	50	96	2
TAP	50	96	6
STR	50	144	2
SI_	50	144	2	96	48	7
TAP	50	240	2
TAP	50	240	6
TAP	50	288	6
TAP	50	336	5
BST	51	0	1
SCR	51	0	1	96	48	4
TAP	51	0	4
TAP	51	96	1
TAP	51	96	5
STR	51	144	5
SCR	51	144	5	96	48	0
TAP	51	240	1
TAP	51	240	5
TAP	51	288	1
TAP	51	336	2
BST	52	0	3
SI_	52	0	3	96	48	0
TAP	52	96	0
BST	52	144	6
SI_	52	144	6	96	48	3
TAP	52	240	7
BST	52	288	1
SSR	52	288	1	96	672	5
HLD	55	0	3	48
HLD	55	0	5	96
HLD	55	144	3	48
HLD	55	144	5	96
TAP	55	288	3
TAP	55	288	5
HLD	56	0	2	96
HLD	56	0	4	48
HLD	56	144	2	96
HLD	56	144	4	48
TAP	56	288	2
TAP	56	288	4
HLD	57	0	4	48
HLD	57	0	5	96
HLD	57	144	4	96
HLD	57	144	5	48
TAP	57	288	4
TAP	57	288	5
HLD	58	0	2	48
HLD	58	0	3	96
HLD	58	144	2	96
HLD	58	144	3	48
TAP	58	288	2
TAP	58	288	3
HLD	59	0	3	48
HLD	59	0	5	96
HLD	59	144	3	96
HLD	59	144	5	48
TAP	59	288	3
TAP	59	288	5
HLD	60	0	2	48
HLD	60	0	4	96
HLD	60	144	2	96
HLD	60	144	4	48
TAP	60	288	2
STR	60	288	4
SCR	60	288	4	96	1440	4
HLD	61	0	3	0
HLD	62	0	1	0
HLD	63	0	7	0
STR	64	0	5
SCR	64	0	5	96	192	0
HLD	65	0	2	96
TAP	65	96	3
TAP	65	168	2
TAP	65	192	2
TAP	65	216	3
TAP	65	288	4
TAP	65	288	5
HLD	66	0	1	96
TAP	66	96	3
TAP	66	168	1
TAP	66	192	1
TAP	66	216	3
TAP	66	288	2
TAP	66	288	4
HLD	67	0	5	96
TAP	67	96	4
TAP	67	168	5
TAP	67	192	5
TAP	67	216	4
TAP	67	288	2
TAP	67	288	3
TAP	68	0	4
HLD	68	0	6	96
TAP	68	96	4
TAP	68	168	6
TAP	68	192	6
TAP	68	216	4
TAP	68	288	1
STR	68	288	3
SI_	68	288	3	96	384	7
HLD	69	0	2	288
TAP	70	0	2
STR	70	12	3
SI_	70	12	3	96	36	7
TAP	70	192	0
TAP	70	192	6
TAP	70	208	1
TAP	70	208	5
TAP	70	224	2
TAP	70	224	4
TAP	70	240	3
BRK	70	288	0
BRK	70	288	6
STR	71	0	6
SI_	71	0	6	96	48	2
STR	71	48	2
SLR	71	48	2	96	72	7
TAP	71	96	6
TAP	71	144	0
STR	71	192	1
SI_	71	192	1	96	48	4
TAP	71	240	1
TAP	71	288	1
TAP	71	288	6
TAP	72	0	2
STR	72	0	5
SCL	72	0	5	96	48	3
STR	72	96	0
SCL	72	96	0	96	48	5
SCR	72	96	0	96	48	3
TAP	72	96	5
STR	72	192	0
SI_	72	192	0	96	48	4
TAP	72	288	0
TAP	72	288	4
STR	73	0	1
SI_	73	0	1	96	48	5
STR	73	48	5
SLL	73	48	5	96	72	0
TAP	73	96	1
TAP	73	144	7
STR	73	192	6
SI_	73	192	6	96	48	3
TAP	73	240	6
TAP	73	288	1
TAP	73	288	6
STR	74	0	2
SCR	74	0	2	96	48	4
TAP	74	0	5
TAP	74	96	2
STR	74	96	7
SCL	74	96	7	96	48	4
SCR	74	96	7	96	48	2
STR	74	192	7
SI_	74	192	7	96	48	3
TAP	74	288	3
TAP	74	288	7
TAP	75	0	1
TAP	75	24	2
TAP	75	48	3
TAP	75	72	4
TAP	75	96	6
TAP	75	120	5
TAP	75	144	4
TAP	75	168	3
TAP	75	192	7
TAP	75	216	0
TAP	75	240	1
TAP	75	264	2
TAP	75	288	0
TAP	75	312	7
TAP	75	336	6
TAP	75	360	5
TAP	76	0	1
TAP	76	0	4
TAP	76	24	2
TAP	76	48	3
TAP	76	72	4
TAP	76	96	5
TAP	76	120	6
TAP	76	144	7
TAP	76	168	0
TAP	76	192	1
TAP	76	192	6
TAP	76	216	5
TAP	76	240	4
TAP	76	264	3
TAP	76	288	2
TAP	76	312	1
TAP	76	336	0
TAP	76	360	7
TAP	77	0	3
STR	77	0	6
SI_	77	0	6	96	48	3
TAP	77	96	2
STR	77	144	2
SI_	77	144	2	96	48	7
STR	77	240	5
SI_	77	240	5	96	48	2
TAP	77	336	0
TAP	78	48	0
TAP	78	96	1
TAP	78	96	7
TAP	78	144	2
STR	78	144	6
SCL	78	144	6	96	48	3
TAP	78	240	3
TAP	78	240	6
TAP	78	256	2
TAP	78	272	1
TAP	78	288	0
STR	79	0	0
SI_	79	0	0	96	48	4
STR	79	48	4
SLL	79	48	4	96	88	7
TAP	79	96	0
TAP	79	144	5
STR	79	192	6
SI_	79	192	6	96	48	2
TAP	79	240	6
TAP	79	288	0
TAP	79	288	6
STR	80	0	1
SCR	80	0	1	96	48	3
TAP	80	0	4
TAP	80	96	1
STR	80	96	6
SCL	80	96	6	96	48	3
SCR	80	96	6	96	48	1
STR	80	192	6
SI_	80	192	6	96	48	2
TAP	80	288	2
TAP	80	288	6
STR	81	0	0
SI_	81	0	0	96	48	4
STR	81	48	4
SLL	81	48	4	96	72	7
TAP	81	96	0
TAP	81	144	6
TAP	81	192	6
TAP	81	240	5
STR	81	288	0
SI_	81	288	0	96	48	4
TAP	81	288	4
TAP	82	0	0
STR	82	0	4
SCL	82	0	4	96	96	0
TAP	82	96	7
TAP	82	128	6
TAP	82	160	5
TAP	82	192	4
TAP	82	288	2
TAP	82	288	6
TAP	83	0	1
BRK	83	0	5
TAP	83	32	6
TAP	83	64	7
TAP	83	96	0
TAP	83	96	3
TAP	83	128	2
TAP	83	160	1
TAP	83	192	0
TAP	83	192	4
TAP	83	224	5
TAP	83	256	6
TAP	83	288	2
TAP	83	288	7
TAP	83	320	1
TAP	83	352	0
TAP	84	0	4
TAP	84	0	7
TAP	84	32	5
TAP	84	64	6
STR	84	96	2
SI_	84	96	2	96	48	7
TAP	84	96	7
TAP	84	192	6
TAP	84	288	0
TAP	84	288	5
STR	85	0	6
SI_	85	0	6	96	48	3
HLD	85	0	7	72
TAP	85	72	6
TAP	85	96	7
TAP	85	144	2
HLD	85	192	0	72
STR	85	192	1
SI_	85	192	1	96	48	4
TAP	85	264	1
TAP	85	288	0
TAP	85	336	6
TAP	86	0	5
TAP	86	24	4
TAP	86	48	5
TAP	86	72	4
TAP	86	96	7
TAP	86	120	0
TAP	86	144	7
TAP	86	168	0
TAP	86	192	3
TAP	86	216	2
TAP	86	240	3
TAP	86	264	2
TAP	86	288	6
TAP	86	312	7
TAP	86	336	6
TAP	86	360	7
TAP	87	0	0
BST	87	0	5
SSR	87	0	5	96	48	1
TAP	87	96	1
BST	87	144	3
SSR	87	144	3	96	48	7
TAP	87	240	7
BRK	87	288	5
STR	88	0	0
SCR	88	0	0	96	48	3
TAP	88	0	4
TAP	88	96	0
STR	88	96	6
SCL	88	96	6	96	48	3
SCR	88	96	6	96	48	0
STR	88	192	6
SI_	88	192	6	96	48	2
TAP	88	288	2
TAP	88	288	6
STR	89	0	0
SI_	89	0	0	96	48	5
STR	89	48	5
SLL	89	48	5	96	88	0
TAP	89	96	0
TAP	89	144	7
STR	89	192	6
SI_	89	192	6	96	48	2
TAP	89	240	6
TAP	89	288	2
TAP	89	288	6
STR	90	0	0
SCR	90	0	0	96	48	3
TAP	90	0	4
TAP	90	96	0
STR	90	96	6
SCL	90	96	6	96	48	3
SCR	90	96	6	96	48	0
STR	90	192	6
SI_	90	192	6	96	48	2
TAP	90	288	2
TAP	90	288	6
TAP	91	0	0
TAP	91	24	1
TAP	91	48	2
TAP	91	72	3
TAP	91	96	5
TAP	91	120	6
TAP	91	144	7
TAP	91	168	0
TAP	91	192	4
TAP	91	216	3
TAP	91	240	2
TAP	91	264	1
TAP	91	288	7
TAP	91	312	6
TAP	91	336	5
TAP	91	360	4
TAP	92	0	0
TAP	92	0	3
TAP	92	24	1
TAP	92	48	2
TAP	92	72	3
TAP	92	96	4
TAP	92	120	5
TAP	92	144	6
TAP	92	168	7
TAP	92	192	0
TAP	92	192	5
TAP	92	216	4
TAP	92	240	3
TAP	92	264	2
TAP	92	288	1
TAP	92	312	0
TAP	92	336	7
TAP	92	360	6
STR	93	0	0
SUR	93	0	0	96	48	4
TAP	93	0	5
TAP	93	96	5
STR	93	144	5
SCR	93	144	5	96	48	0
STR	93	240	1
SCR	93	240	1	96	48	4
TAP	93	336	0
TAP	93	336	1
TAP	93	352	7
TAP	93	368	6
STR	94	0	5
SF_	94	0	5	96	48	1
TAP	94	192	3
TAP	94	192	7
TAP	94	216	6
TAP	94	240	5
TAP	94	264	4
TAP	94	288	3
TAP	94	312	2
TAP	94	336	1
TAP	94	360	0
TAP	95	0	3
HLD	95	0	7	144
TAP	95	48	3
TAP	95	96	2
HLD	95	144	1	144
TAP	95	192	5
TAP	95	240	4
HLD	95	288	3	96
TAP	95	336	0
TAP	96	0	1
HLD	96	48	1	96
TAP	96	96	3
HLD	96	144	3	96
TAP	96	192	4
HLD	96	240	4	96
TAP	96	288	5
TAP	96	336	5
TAP	97	0	6
TAP	97	24	7
TAP	97	48	6
TAP	97	72	7
TAP	97	96	4
TAP	97	120	3
TAP	97	144	4
TAP	97	168	3
TAP	97	192	0
TAP	97	216	1
TAP	97	240	0
TAP	97	264	1
TAP	97	288	5
TAP	97	312	4
TAP	97	336	5
TAP	97	360	4
BST	98	0	3
SI_	98	0	3	96	48	7
TAP	98	0	6
TAP	98	192	0
TAP	98	192	6
TAP	98	208	1
TAP	98	208	5
TAP	98	224	2
TAP	98	224	4
TAP	98	240	3
BRK	98	288	0
BRK	98	288	6
TAP	99	0	1
TAP	99	0	4
TAP	99	48	2
TAP	99	72	3
TAP	99	96	2
TAP	99	120	3
TAP	99	144	2
TAP	99	168	3
TAP	99	192	1
TAP	99	240	6
TAP	99	264	7
TAP	99	288	6
TAP	99	312	7
TAP	99	336	6
TAP	99	360	7
STR	100	0	5
SI_	100	0	5	96	48	1
TAP	100	48	5
STR	100	96	3
SI_	100	96	3	96	48	7
TAP	100	144	3
STR	100	192	6
SI_	100	192	6	96	48	2
TAP	100	240	6
TAP	100	288	1
TAP	100	336	1
TAP	101	0	1
TAP	101	0	4
TAP	101	48	2
TAP	101	72	3
TAP	101	96	1
TAP	101	120	3
TAP	101	144	2
TAP	101	168	3
TAP	101	192	1
TAP	101	240	6
TAP	101	264	7
TAP	101	288	5
TAP	101	312	7
TAP	101	336	6
TAP	101	360	7
TAP	102	0	5
TAP	102	48	1
TAP	102	48	5
TAP	102	96	3
TAP	102	144	3
TAP	102	144	7
TAP	102	192	0
TAP	102	216	4
TAP	102	240	0
TAP	102	264	4
TAP	102	288	2
TAP	102	312	6
TAP	102	336	2
TAP	102	360	6
STR	103	0	1
SXR	103	0	1	96	120	2
STR	103	0	5
SXR	103	0	5	96	120	6
BRK	103	96	1
BRK	103	96	5
TAP	103	288	0
TAP	103	312	7
TAP	103	336	0
TAP	103	360	7
TAP	104	0	1
STR	104	0	6
SUL	104	0	6	96	48	2
TAP	104	48	6
STR	104	96	3
SUL	104	96	3	96	48	7
TAP	104	144	3
STR	104	192	5
SUR	104	192	5	96	48	1
TAP	104	240	5
TAP	104	288	2
TAP	104	336	2
TAP	105	0	2
TAP	105	0	7
TAP	105	48	1
TAP	105	72	0
TAP	105	96	2
TAP	105	120	0
TAP	105	144	1
TAP	105	168	0
TAP	105	192	3
TAP	105	240	6
TAP	105	264	7
TAP	105	288	5
TAP	105	312	7
TAP	105	336	6
TAP	105	360	7
TAP	106	0	4
TAP	106	24	0
TAP	106	48	4
TAP	106	72	0
TAP	106	96	6
TAP	106	120	2
TAP	106	144	6
TAP	106	168	2
TAP	106	192	5
TAP	106	204	4
TAP	106	216	3
TAP	106	228	2
TAP	106	240	1
TAP	106	252	0
TAP	106	264	7
TAP	106	276	6
BRK	106	288	1
TAP	106	288	5
BRK	107	0	0
TAP	107	0	4
TAP	107	32	1
TAP	107	64	2
TAP	107	96	3
TAP	107	96	7
TAP	107	128	4
TAP	107	160	5
TAP	107	192	2
TAP	107	192	6
TAP	107	224	7
TAP	107	256	0
TAP	107	288	1
TAP	107	288	5
TAP	107	320	2
TAP	107	352	3
TAP	108	0	4
BRK	108	0	7
TAP	108	32	6
TAP	108	64	5
TAP	108	96	0
TAP	108	96	4
TAP	108	128	3
TAP	108	160	2
TAP	108	192	1
TAP	108	192	5
TAP	108	224	0
TAP	108	256	7
TAP	108	288	2
HLD	108	288	6	96
TAP	109	0	1
TAP	109	24	4
TAP	109	48	2
TAP	109	72	3
TAP	109	96	7
TAP	109	120	6
TAP	109	144	0
TAP	109	168	5
TAP	109	192	1
TAP	109	216	0
TAP	109	240	2
TAP	109	264	7
TAP	109	288	1
TAP	109	312	0
TAP	109	336	1
TAP	109	360	0
BRK	110	0	1
TAP	110	12	2
TAP	110	24	3
TAP	110	36	4
TAP	110	48	5
TAP	110	60	6
TAP	110	72	7
TAP	110	84	0
TAP	110	96	1
TAP	110	108	2
TAP	110	120	3
TAP	110	132	4
TAP	110	144	5
TAP	110	156	6
TAP	110	168	7
TAP	110	180	0
TAP	110	192	1
BRK	110	192	4
TAP	110	204	3
TAP	110	216	2
TAP	110	228	1
TAP	110	240	0
TAP	110	252	7
TAP	110	264	6
TAP	110	276	5
BST	110	288	4
SI_	110	288	4	96	48	0
TAP	110	300	3
TAP	110	312	2
TAP	110	324	1
TAP	110	336	0
TAP	110	348	7
TAP	110	360	6
TAP	110	372	5
BST	111	0	4
SF_	111	0	4	96	480	0
HLD	113	0	2	96
HLD	113	0	3	48
TAP	113	96	3
HLD	113	144	2	48
HLD	113	144	3	96
TAP	113	240	2
TAP	113	288	2
TAP	113	288	3
HLD	114	0	4	48
HLD	114	0	5	96
TAP	114	96	4
HLD	114	144	4	96
HLD	114	144	5	48
TAP	114	240	5
TAP	114	288	4
TAP	114	288	5
HLD	115	0	2	96
HLD	115	0	4	48
TAP	115	96	4
HLD	115	144	2	48
HLD	115	144	4	96
TAP	115	240	2
TAP	115	288	2
TAP	115	288	4
HLD	116	0	3	48
HLD	116	0	5	96
TAP	116	96	3
HLD	116	144	3	96
HLD	116	144	5	48
TAP	116	240	5
TAP	116	288	3
STR	116	288	5
SI_	116	288	5	96	48	3
TAP	117	0	2

T_REC_TAP	732
T_REC_BRK	28
T_REC_XTP	0
T_REC_HLD	83
T_REC_XHO	0
T_REC_STR	106
T_REC_BST	11
T_REC_XST	0
T_REC_TTP	0
T_REC_THO	0
T_REC_SLD	126
T_REC_ALL	1086
T_NUM_TAP	838
T_NUM_BRK	39
T_NUM_HLD	83
T_NUM_SLD	126
T_NUM_ALL	1086
T_JUDGE_TAP	877
T_JUDGE_HLD	183
T_JUDGE_SLD	126
T_JUDGE_ALL	1186
TTM_EACHPAIRS	187
TTM_SCR_TAP	419000
TTM_SCR_BRK	101400
TTM_SCR_HLD	83000
TTM_SCR_SLD	189000
TTM_SCR_ALL	792400
TTM_SCR_S	764850
TTM_SCR_SS	788500
TTM_RAT_ACV	10049

