VERSION	0.00.00	1.03.00
FES_MODE	0
BPM_DEF	210.000	210.000	210.000	210.000
MET_DEF	4	4
RESOLUTION	384
CLK_DEF	384
COMPATIBLE_CODE	MA2

BPM	0	0	210.000

TAP	2	0	2
HLD	2	0	6	144
HLD	2	144	5	144
HLD	2	288	4	192
TAP	3	96	3
TAP	3	192	2
TAP	3	288	1
HLD	4	0	0	144
TAP	4	0	7
HLD	4	144	1	144
HLD	4	288	2	192
TAP	5	96	3
TAP	5	192	4
TAP	5	288	5
TAP	6	0	6
TAP	6	0	7
STR	6	96	0
SI_	6	96	0	96	144	4
TAP	6	144	0
HLD	7	0	5	144
HLD	7	144	6	144
TAP	7	288	7
STR	8	0	3
SXR	8	0	3	96	216	0
STR	8	0	7
SXR	8	0	7	96	216	4
BRK	9	0	1
BRK	9	0	5
TAP	9	192	3
TAP	9	192	4
TAP	9	240	3
TAP	9	240	4
TAP	9	288	2
TAP	9	288	5
TAP	10	0	3
TAP	10	0	6
TAP	10	96	4
TAP	10	96	5
TAP	10	144	4
TAP	10	144	5
TAP	10	240	2
TAP	10	240	3
STR	10	336	0
SCL	10	336	0	96	96	4
TAP	10	336	1
TAP	11	240	2
TAP	11	288	3
TAP	11	336	2
TAP	12	0	1
TAP	12	0	4
TAP	12	96	2
TAP	12	96	3
TAP	12	144	2
TAP	12	144	3
TAP	12	240	4
TAP	12	240	5
HLD	12	336	6	144
TAP	12	336	7
TAP	13	96	0
TAP	13	144	0
TAP	13	240	2
TAP	13	240	3
TAP	13	336	0
HLD	13	336	1	144
TAP	14	96	7
TAP	14	144	7
TAP	14	240	4
TAP	14	240	5
HLD	14	336	6	144
TAP	14	336	7
TAP	15	96	1
TAP	15	144	1
TAP	15	240	2
TAP	15	240	3
TAP	15	336	3
TAP	15	360	4
STR	16	0	3
SCL	16	0	3	96	288	4
TAP	17	192	3
TAP	17	192	5
TAP	17	288	2
TAP	17	288	4
TAP	18	0	3
TAP	18	0	4
TAP	18	96	4
TAP	18	96	5
HLD	18	144	3	96
TAP	18	240	4
HLD	18	288	5	384
TAP	19	0	4
TAP	19	96	6
TAP	19	192	7
TAP	19	288	0
TAP	20	0	3
TAP	20	0	4
TAP	20	96	2
TAP	20	96	3
HLD	20	144	4	96
TAP	20	240	3
HLD	20	288	2	384
TAP	21	0	3
TAP	21	96	1
TAP	21	192	0
TAP	21	288	7
TAP	22	0	4
TAP	22	0	6
TAP	22	72	3
TAP	22	72	4
TAP	22	144	1
TAP	22	144	3
TAP	22	288	1
TAP	22	288	3
TAP	22	360	3
TAP	22	360	4
TAP	23	48	4
TAP	23	48	6
TAP	23	192	6
TAP	23	192	7
TAP	23	264	3
TAP	23	264	4
TAP	23	336	0
TAP	23	336	1
TAP	24	0	2
TAP	24	48	2
TAP	24	96	3
TAP	24	144	2
TAP	24	192	5
TAP	24	240	5
TAP	24	288	4
TAP	24	336	5
TAP	25	0	3
TAP	25	0	4
TAP	25	48	3
TAP	25	48	4
TAP	25	96	2
TAP	25	96	5
TAP	25	144	2
TAP	25	144	5
TAP	25	192	1
TAP	25	192	6
TAP	25	240	1
TAP	25	240	6
TAP	25	288	0
TAP	25	288	7
TAP	25	336	0
TAP	25	336	7
BST	26	0	0
SXL	26	0	0	96	288	3
BRK	26	0	7
STR	27	0	6
SXR	27	0	6	96	288	3
STR	28	0	7
SXL	28	0	7	96	288	3
SXR	28	0	7	96	288	3
TAP	29	192	3
STR	30	0	7
SXR	30	0	7	96	288	4
STR	31	0	1
SXL	31	0	1	96	288	4
STR	32	0	0
SI_	32	0	0	96	192	4
BRK	33	0	4
TAP	33	192	3
TAP	33	216	4
TAP	33	240	3
TAP	33	288	2
TAP	33	288	5
TAP	34	0	3
TAP	34	0	4
TAP	34	96	2
TAP	34	96	4
HLD	34	144	1	96
TAP	34	144	3
TAP	34	240	0
TAP	34	288	1
TAP	34	288	7
TAP	35	0	1
TAP	35	0	3
TAP	35	96	0
TAP	35	96	2
TAP	35	192	5
TAP	35	192	7
TAP	35	288	4
TAP	35	288	6
TAP	36	0	3
TAP	36	0	4
TAP	36	96	3
TAP	36	96	5
TAP	36	144	4
HLD	36	144	6	96
TAP	36	240	7
TAP	36	288	0
TAP	36	288	6
TAP	37	0	4
TAP	37	0	6
TAP	37	96	5
TAP	37	96	7
TAP	37	192	0
TAP	37	192	2
TAP	37	288	1
TAP	37	288	3
TAP	38	0	3
TAP	38	0	4
TAP	38	96	0
TAP	38	96	7
HLD	38	144	0	432
STR	38	144	7
SCR	38	144	7	96	336	6
TAP	40	0	6
TAP	40	0	7
TAP	40	96	5
HLD	40	144	5	96
TAP	40	240	4
TAP	40	336	1
TAP	41	0	0
TAP	41	0	1
TAP	41	96	2
HLD	41	144	2	96
TAP	41	240	3
TAP	41	288	2
TAP	41	288	3
TAP	42	0	3
TAP	42	0	4
TAP	42	96	3
TAP	42	96	5
TAP	42	144	4
HLD	42	144	6	96
TAP	42	240	7
TAP	42	288	0
TAP	42	288	6
TAP	43	0	4
TAP	43	0	6
TAP	43	96	5
TAP	43	96	7
TAP	43	192	0
TAP	43	192	2
TAP	43	288	1
TAP	43	288	3
TAP	44	0	3
TAP	44	0	4
TAP	44	96	2
TAP	44	96	4
HLD	44	144	1	96
TAP	44	144	3
TAP	44	240	0
TAP	44	288	1
HLD	44	288	7	96
TAP	45	0	3
TAP	45	96	5
TAP	45	128	4
TAP	45	160	5
STR	45	192	4
SI_	45	192	4	96	48	1
STR	46	0	0
SCL	46	0	0	96	480	1
HLD	46	0	7	576
HLD	48	0	1	72
HLD	48	72	2	72
TAP	48	144	3
HLD	48	192	6	72
HLD	48	264	5	72
TAP	48	336	4
TAP	49	0	3
TAP	49	0	4
TAP	49	48	3
TAP	49	48	4
TAP	49	96	2
TAP	49	96	5
TAP	49	144	2
TAP	49	144	5
TAP	49	192	1
TAP	49	192	6
BRK	49	288	0
BRK	49	288	7
HLD	50	0	6	288
BST	50	0	7
SCL	50	0	7	96	192	2
BST	51	0	0
SCR	51	0	0	96	192	5
HLD	51	0	1	288
HLD	52	0	4	96
BRK	52	0	6
BRK	52	144	1
HLD	52	144	3	96
BST	52	288	0
SCR	52	288	0	96	1152	7
BST	52	288	7
SCL	52	288	7	96	1152	0
HLD	57	0	4	96
HLD	57	144	4	96
TAP	57	288	3
TAP	57	288	4
HLD	58	0	3	96
HLD	58	144	3	96
TAP	58	288	3
TAP	58	288	4
HLD	59	0	4	96
HLD	59	0	5	96
HLD	59	144	4	96
HLD	59	144	5	96
TAP	59	288	4
TAP	59	288	5
HLD	60	0	2	96
HLD	60	0	3	96
HLD	60	144	2	96
HLD	60	144	3	96
TAP	60	288	2
TAP	60	288	3
TAP	61	0	2
STR	61	0	5
SXR	61	0	5	96	288	2
TAP	62	240	2
TAP	62	288	3
TAP	62	336	4
STR	63	0	2
SXL	63	0	2	96	288	5
TAP	63	0	5
TAP	64	192	3
TAP	64	224	4
TAP	64	256	3
TAP	64	288	4
STR	65	0	3
SCL	65	0	3	96	288	5
TAP	65	0	4
STR	66	0	4
SCR	66	0	4	96	288	2
STR	67	0	3
SCL	67	0	3	96	96	0
STR	67	192	4
SCR	67	192	4	96	96	7
TAP	68	0	1
TAP	68	48	1
TAP	68	96	6
TAP	68	144	6
TAP	68	192	0
TAP	68	216	7
TAP	68	240	0
TAP	68	264	7
TAP	68	288	0
TAP	68	312	7
TAP	68	336	0
TAP	68	360	7
STR	69	0	0
SF_	69	0	0	96	192	4
BRK	70	0	2
BRK	70	0	6
TAP	70	192	3
TAP	70	216	4
TAP	70	240	3
TAP	70	288	2
TAP	70	288	5
TAP	71	0	0
TAP	71	0	7
TAP	71	96	1
TAP	71	96	7
TAP	71	144	0
HLD	71	144	2	96
TAP	71	240	3
STR	71	288	2
SI_	71	288	2	96	48	6
TAP	71	288	4
STR	72	0	7
SI_	72	0	7	96	48	3
STR	72	96	1
SI_	72	96	1	96	48	5
STR	72	192	6
SI_	72	192	6	96	48	3
TAP	72	288	7
TAP	73	0	0
TAP	73	0	7
TAP	73	96	0
TAP	73	96	6
HLD	73	144	5	96
TAP	73	144	7
TAP	73	240	4
TAP	73	288	3
STR	73	288	5
SI_	73	288	5	96	48	1
STR	74	0	0
SI_	74	0	0	96	48	4
STR	74	96	6
SI_	74	96	6	96	48	2
STR	74	192	1
SI_	74	192	1	96	48	4
TAP	74	288	0
TAP	75	0	2
TAP	75	0	5
TAP	75	96	0
STR	75	96	7
SCR	75	96	7	96	384	6
HLD	75	144	0	144
TAP	75	144	7
TAP	76	0	0
TAP	76	96	0
TAP	76	192	0
TAP	76	288	0
HLD	77	0	0	96
TAP	77	0	1
TAP	77	96	2
HLD	77	144	2	96
TAP	77	240	4
TAP	77	336	5
TAP	78	0	6
HLD	78	0	7	96
TAP	78	96	5
HLD	78	144	5	96
TAP	78	240	3
TAP	78	288	3
TAP	78	288	4
TAP	79	0	0
TAP	79	0	7
TAP	79	96	0
TAP	79	96	6
HLD	79	144	5	96
TAP	79	144	7
TAP	79	240	4
TAP	79	288	3
STR	79	288	5
SI_	79	288	5	96	48	1
STR	80	0	0
SI_	80	0	0	96	48	4
STR	80	96	6
SI_	80	96	6	96	48	2
STR	80	192	1
SI_	80	192	1	96	48	4
TAP	80	288	0
TAP	81	0	0
TAP	81	0	7
TAP	81	96	1
TAP	81	96	7
TAP	81	144	0
HLD	81	144	2	96
TAP	81	240	3
TAP	81	288	1
TAP	81	288	4
TAP	82	0	0
TAP	82	0	7
TAP	82	96	2
TAP	82	128	3
TAP	82	160	2
STR	82	192	3
SI_	82	192	3	96	48	6
STR	83	0	0
SCL	83	0	0	96	480	1
HLD	83	0	7	288
TAP	84	0	7
TAP	84	96	7
TAP	84	192	7
TAP	84	288	7
HLD	85	0	6	72
TAP	85	0	7
HLD	85	72	5	72
TAP	85	144	4
TAP	85	192	0
HLD	85	192	1	72
HLD	85	264	2	72
TAP	85	336	3
TAP	86	0	3
TAP	86	0	4
TAP	86	48	3
TAP	86	48	4
TAP	86	96	2
TAP	86	96	5
TAP	86	144	2
TAP	86	144	5
TAP	86	192	1
TAP	86	192	6
BRK	86	288	0
BRK	86	288	7
HLD	87	0	0	96
BRK	87	0	5
BRK	87	144	2
HLD	87	144	7	96
BST	87	288	1
SI_	87	288	1	96	48	4
BST	87	288	6
SI_	87	288	6	96	48	3
TAP	88	96	2
TAP	88	96	5
TAP	88	192	1
TAP	88	192	6
TAP	88	288	0
TAP	88	288	7
TAP	89	0	1
HLD	89	0	3	96
TAP	89	96	2
HLD	89	144	1	96
TAP	89	144	4
TAP	89	240	0
TAP	89	288	2
STR	89	288	7
SI_	89	288	7	96	48	3
STR	90	0	2
SI_	90	0	2	96	48	0
STR	90	96	4
SI_	90	96	4	96	48	6
STR	90	192	7
SI_	90	192	7	96	48	3
STR	90	288	5
SCR	90	288	5	96	288	4
HLD	91	0	0	288
TAP	92	0	0
TAP	92	0	4
TAP	92	96	3
TAP	92	96	6
TAP	92	192	1
TAP	92	192	4
TAP	92	288	3
TAP	92	288	7
HLD	93	0	1	96
TAP	93	0	4
TAP	93	96	0
HLD	93	144	0	96
HLD	93	240	7	96
TAP	93	336	5
STR	94	0	5
SI_	94	0	5	96	48	1
TAP	94	192	2
TAP	94	240	2
TAP	94	288	1
TAP	94	288	3
HLD	95	0	4	96
TAP	95	0	6
TAP	95	96	5
TAP	95	144	3
HLD	95	144	6	96
TAP	95	240	7
STR	95	288	0
SI_	95	288	0	96	48	4
TAP	95	288	5
STR	96	0	5
SI_	96	0	5	96	48	7
STR	96	96	3
SI_	96	96	3	96	48	1
STR	96	192	0
SI_	96	192	0	96	48	4
TAP	96	288	2
TAP	97	0	3
TAP	97	0	5
TAP	97	48	3
TAP	97	48	5
TAP	97	96	2
TAP	97	96	4
TAP	97	144	2
TAP	97	144	4
TAP	97	192	3
TAP	97	192	6
TAP	97	240	3
TAP	97	240	6
TAP	97	288	1
TAP	97	288	4
TAP	97	336	1
TAP	97	336	4
BRK	98	0	0
BRK	98	0	5
TAP	98	192	3
TAP	98	216	4
TAP	98	240	3
TAP	98	288	2
TAP	98	288	5
STR	99	0	1
SI_	99	0	1	96	48	3
TAP	99	48	1
STR	99	96	0
SI_	99	96	0	96	48	4
TAP	99	144	0
STR	99	192	2
SCR	99	192	2	96	48	5
STR	99	288	7
SI_	99	288	7	96	48	3
TAP	100	0	0
HLD	100	192	3	72
HLD	100	264	4	72
TAP	100	336	5
STR	101	0	6
SI_	101	0	6	96	48	4
TAP	101	48	6
STR	101	96	7
SI_	101	96	7	96	48	3
TAP	101	144	7
STR	101	192	5
SCL	101	192	5	96	48	2
STR	101	288	0
SI_	101	288	0	96	48	4
TAP	102	0	7
HLD	102	192	4	72
HLD	102	264	3	72
TAP	102	336	2
STR	103	0	1
SI_	103	0	1	96	48	3
TAP	103	48	1
STR	103	96	0
SI_	103	96	0	96	48	4
TAP	103	144	0
STR	103	192	2
SXR	103	192	2	96	144	4
STR	103	288	7
SCL	103	288	7	96	48	4
TAP	104	192	2
HLD	104	192	3	72
HLD	104	264	4	72
TAP	104	336	5
STR	105	0	6
SI_	105	0	6	96	48	4
TAP	105	48	6
STR	105	96	7
SI_	105	96	7	96	48	3
TAP	105	144	7
STR	105	192	5
SXL	105	192	5	96	144	3
STR	105	288	0
SCR	105	288	0	96	48	3
TAP	106	192	0
TAP	106	192	7
TAP	106	240	0
TAP	106	240	7
BRK	106	288	1
BRK	106	288	6
TAP	107	0	0
TAP	107	0	1
TAP	107	48	2
TAP	107	96	3
TAP	107	144	4
TAP	107	144	5
TAP	107	192	6
TAP	107	240	7
TAP	107	288	0
TAP	107	288	1
TAP	107	336	2
STR	108	0	3
SI_	108	0	3	96	48	7
STR	108	96	6
SI_	108	96	6	96	48	4
STR	108	192	0
SI_	108	192	0	96	48	2
BRK	108	288	7
TAP	109	0	6
TAP	109	0	7
TAP	109	48	5
TAP	109	96	4
TAP	109	144	2
TAP	109	144	3
TAP	109	192	1
TAP	109	240	0
TAP	109	288	6
TAP	109	288	7
TAP	109	336	5
TAP	110	0	3
TAP	110	0	4
TAP	110	96	2
TAP	110	96	5
TAP	110	192	1
TAP	110	216	6
TAP	110	240	1
TAP	110	264	6
TAP	110	288	0
TAP	110	312	7
TAP	110	336	0
TAP	110	360	7
BST	111	0	0
SF_	111	0	0	96	480	4
TAP	113	0	4
HLD	113	0	5	240
TAP	113	96	4
TAP	113	144	4
TAP	113	240	4
TAP	113	288	4
TAP	113	288	5
HLD	114	0	2	240
TAP	114	0	3
TAP	114	96	3
TAP	114	144	3
TAP	114	240	3
TAP	114	288	2
TAP	114	288	3
TAP	115	0	4
HLD	115	0	5	96
TAP	115	96	4
HLD	115	144	4	96
TAP	115	144	5
TAP	115	240	5
TAP	115	288	4
TAP	115	288	5
HLD	116	0	2	96
TAP	116	0	3
TAP	116	96	3
TAP	116	144	2
HLD	116	144	3	96
TAP	116	240	2
STR	116	288	2
SCR	116	288	2	96	48	4
TAP	116	288	3

T_REC_TAP	446
T_REC_BRK	19
T_REC_XTP	0
T_REC_HLD	80
T_REC_XHO	0
T_REC_STR	65
T_REC_BST	8
T_REC_XST	0
T_REC_TTP	0
T_REC_THO	0
T_REC_SLD	74
T_REC_ALL	692
T_NUM_TAP	511
T_NUM_BRK	27
T_NUM_HLD	80
T_NUM_SLD	74
T_NUM_ALL	692
T_JUDGE_TAP	538
T_JUDGE_HLD	225
T_JUDGE_SLD	74
T_JUDGE_ALL	837
TTM_EACHPAIRS	189
TTM_SCR_TAP	255500
TTM_SCR_BRK	70200
TTM_SCR_HLD	80000
TTM_SCR_SLD	111000
TTM_SCR_ALL	516700
TTM_SCR_S	498600
TTM_SCR_SS	514000
TTM_RAT_ACV	10052

