VERSION	0.00.00	1.03.00
FES_MODE	0
BPM_DEF	210.000	210.000	210.000	210.000
MET_DEF	4	4
RESOLUTION	384
CLK_DEF	384
COMPATIBLE_CODE	MA2

BPM	0	0	210.000

HLD	2	0	5	384
HLD	3	0	4	384
HLD	4	0	3	384
HLD	5	0	2	384
HLD	6	0	1	384
HLD	7	0	0	384
TAP	8	0	7
TAP	8	192	6
STR	9	0	5
SI_	9	0	5	96	192	2
TAP	10	0	1
TAP	10	96	1
TAP	10	192	0
TAP	10	192	1
TAP	11	0	6
TAP	11	96	6
TAP	11	192	6
TAP	11	192	7
TAP	12	0	1
TAP	12	96	1
TAP	12	192	0
TAP	12	192	1
TAP	12	288	7
TAP	13	0	6
TAP	13	96	6
TAP	13	192	6
TAP	13	192	7
TAP	14	0	5
TAP	14	96	5
TAP	14	192	4
TAP	14	192	5
TAP	15	0	2
TAP	15	96	2
STR	15	192	3
SCR	15	192	3	96	192	6
TAP	17	0	6
TAP	17	96	6
TAP	17	192	6
TAP	17	192	7
TAP	18	0	1
TAP	18	96	1
TAP	18	192	0
TAP	18	192	2
TAP	19	0	6
TAP	19	96	6
TAP	19	192	5
TAP	19	192	7
TAP	20	0	1
TAP	20	96	1
TAP	20	192	0
TAP	20	192	2
TAP	20	288	7
TAP	21	0	6
TAP	21	96	6
TAP	21	192	5
TAP	21	192	7
STR	22	0	0
SF_	22	0	0	96	480	4
TAP	24	0	5
TAP	24	96	5
TAP	24	192	4
TAP	24	192	5
TAP	25	0	2
TAP	25	96	2
STR	25	192	2
SI_	25	192	2	96	240	7
STR	25	192	3
SI_	25	192	3	96	240	6
TAP	27	0	6
TAP	28	0	5
TAP	29	0	4
TAP	29	192	3
TAP	30	0	2
TAP	31	0	3
HLD	32	0	4	384
TAP	34	0	5
TAP	34	96	4
TAP	34	192	4
TAP	34	192	5
STR	34	288	3
SCL	34	288	3	96	240	0
TAP	36	0	6
TAP	36	96	7
TAP	36	192	6
TAP	36	192	7
STR	36	288	0
SCR	36	288	0	96	240	3
TAP	38	0	5
TAP	38	96	4
TAP	38	192	4
TAP	38	192	5
TAP	39	0	2
TAP	39	96	3
TAP	39	192	2
TAP	39	192	3
TAP	40	0	5
TAP	40	96	4
TAP	40	192	4
TAP	40	192	5
TAP	40	288	3
TAP	41	0	2
TAP	41	96	3
TAP	41	192	2
TAP	41	192	4
TAP	42	0	2
TAP	42	96	3
TAP	42	192	2
TAP	42	192	3
STR	42	288	4
SCR	42	288	4	96	240	7
TAP	44	0	1
TAP	44	96	0
TAP	44	192	0
TAP	44	192	1
STR	44	288	7
SCL	44	288	7	96	240	4
TAP	46	0	2
TAP	46	96	3
TAP	46	192	2
TAP	46	192	3
TAP	47	0	5
TAP	47	96	4
TAP	47	192	4
TAP	47	192	5
TAP	48	0	2
TAP	48	96	3
TAP	48	192	2
TAP	48	192	3
TAP	48	288	4
TAP	49	0	5
TAP	49	96	4
TAP	49	192	3
TAP	49	192	5
HLD	50	0	6	192
HLD	50	0	7	192
HLD	51	0	0	192
HLD	51	0	1	192
HLD	52	0	0	288
HLD	52	0	7	288
TAP	54	0	6
TAP	54	0	7
TAP	55	0	4
TAP	55	0	5
TAP	56	0	2
TAP	56	0	3
TAP	57	0	3
TAP	57	0	4
TAP	58	0	4
TAP	59	0	3
HLD	60	0	4	384
STR	61	0	3
SI_	61	0	3	96	288	7
TAP	62	192	6
STR	63	0	6
SI_	63	0	6	96	288	2
TAP	64	192	1
STR	65	0	1
SI_	65	0	1	96	288	5
TAP	66	192	6
STR	67	0	7
SI_	67	0	7	96	288	4
TAP	68	192	3
HLD	69	0	3	384
HLD	69	0	4	384
TAP	71	0	4
TAP	71	96	3
TAP	71	192	5
TAP	71	288	6
TAP	71	288	7
TAP	72	96	7
TAP	72	192	0
TAP	72	288	1
TAP	73	0	3
TAP	73	96	4
TAP	73	192	2
TAP	73	288	0
TAP	73	288	1
TAP	74	96	0
TAP	74	192	7
TAP	74	288	6
TAP	75	0	4
TAP	75	0	5
STR	75	96	6
SCR	75	96	6	96	336	3
TAP	77	0	5
TAP	77	96	4
TAP	77	96	5
TAP	77	192	3
TAP	77	192	6
TAP	77	288	2
TAP	78	0	3
TAP	78	96	2
TAP	78	96	3
TAP	78	192	1
TAP	78	192	4
TAP	79	0	3
TAP	79	96	4
TAP	79	192	2
TAP	79	288	0
TAP	79	288	1
TAP	80	96	0
TAP	80	192	7
TAP	80	288	6
TAP	81	0	4
TAP	81	96	3
TAP	81	192	5
TAP	81	288	6
TAP	81	288	7
TAP	82	96	7
TAP	82	192	0
TAP	82	288	1
STR	83	0	1
SCL	83	0	1	96	384	3
TAP	85	0	1
TAP	85	96	0
TAP	85	96	1
TAP	85	192	6
TAP	85	288	6
TAP	85	288	7
TAP	86	0	0
TAP	86	96	0
TAP	86	96	7
STR	86	192	7
SXL	86	192	7	96	480	3
SXR	86	192	7	96	480	3
TAP	88	192	2
TAP	88	192	4
HLD	89	0	2	96
TAP	89	96	3
HLD	89	192	5	96
TAP	89	288	4
HLD	90	0	2	96
TAP	90	96	3
TAP	90	192	1
TAP	90	192	4
STR	90	288	0
SCL	90	288	0	96	384	3
TAP	92	192	2
TAP	92	192	3
HLD	93	0	2	96
TAP	93	96	3
TAP	93	192	1
TAP	93	192	4
TAP	93	288	5
HLD	94	0	5	96
TAP	94	96	4
TAP	94	192	3
TAP	94	192	6
TAP	95	0	2
TAP	95	96	2
TAP	95	192	1
TAP	95	192	3
TAP	96	0	5
TAP	96	96	5
TAP	96	192	4
TAP	96	192	6
TAP	97	0	2
TAP	97	96	3
TAP	97	192	4
TAP	97	288	5
STR	98	0	6
SI_	98	0	6	96	144	2
TAP	99	0	1
TAP	99	96	0
TAP	99	96	1
TAP	99	192	2
TAP	99	288	3
STR	100	0	2
SCL	100	0	2	96	192	7
TAP	101	0	6
TAP	101	96	6
TAP	101	96	7
TAP	101	192	5
TAP	101	288	4
STR	102	0	5
SCR	102	0	5	96	192	0
TAP	103	0	2
TAP	103	96	2
TAP	103	96	3
TAP	103	192	1
TAP	103	288	0
STR	104	0	1
SCR	104	0	1	96	192	4
TAP	105	0	5
TAP	105	96	4
TAP	105	96	5
TAP	105	192	6
TAP	105	288	7
STR	106	0	6
SCL	106	0	6	96	192	3
TAP	107	0	0
TAP	107	0	1
TAP	107	96	2
TAP	107	192	3
TAP	107	192	4
TAP	107	288	5
TAP	108	0	4
TAP	108	96	4
TAP	108	96	5
TAP	108	192	3
TAP	108	192	6
TAP	109	0	6
TAP	109	0	7
TAP	109	96	5
TAP	109	192	3
TAP	109	192	4
TAP	109	288	2
TAP	110	0	3
TAP	110	96	2
TAP	110	96	3
TAP	110	192	1
TAP	110	192	4
BST	111	0	3
SXR	111	0	3	96	528	7
TAP	113	0	6
TAP	113	192	5
TAP	114	0	2
TAP	114	192	3
TAP	115	0	4
TAP	115	192	3
HLD	116	0	4	336
HLD	116	192	3	144

T_REC_TAP	252
T_REC_BRK	0
T_REC_XTP	0
T_REC_HLD	23
T_REC_XHO	0
T_REC_STR	22
T_REC_BST	1
T_REC_XST	0
T_REC_TTP	0
T_REC_THO	0
T_REC_SLD	24
T_REC_ALL	322
T_NUM_TAP	274
T_NUM_BRK	1
T_NUM_HLD	23
T_NUM_SLD	24
T_NUM_ALL	322
T_JUDGE_TAP	275
T_JUDGE_HLD	128
T_JUDGE_SLD	24
T_JUDGE_ALL	427
TTM_EACHPAIRS	63
TTM_SCR_TAP	137000
TTM_SCR_BRK	2600
TTM_SCR_HLD	23000
TTM_SCR_SLD	36000
TTM_SCR_ALL	198600
TTM_SCR_S	192550
TTM_SCR_SS	198500
TTM_RAT_ACV	10005

