VERSION	0.00.00	1.03.00
FES_MODE	0
BPM_DEF	210.000	210.000	210.000	210.000
MET_DEF	4	4
RESOLUTION	384
CLK_DEF	384
COMPATIBLE_CODE	MA2

BPM	0	0	210.000

HLD	2	0	0	384
HLD	4	0	7	384
HLD	6	0	0	384
HLD	6	0	7	384
STR	8	0	0
SI_	8	0	0	96	288	3
STR	8	0	7
SI_	8	0	7	96	288	4
TAP	10	0	3
TAP	10	192	3
TAP	11	0	3
TAP	11	192	3
TAP	11	192	4
TAP	12	0	2
TAP	12	192	2
TAP	13	0	2
TAP	13	192	2
TAP	13	192	3
TAP	14	0	1
TAP	14	192	1
TAP	15	0	1
TAP	15	192	0
TAP	15	192	1
TAP	16	0	0
TAP	16	192	0
TAP	17	0	0
TAP	17	192	0
TAP	17	192	7
STR	18	0	7
SI_	18	0	7	96	288	4
STR	20	0	0
SI_	20	0	0	96	288	3
STR	22	0	6
SI_	22	0	6	96	288	3
STR	24	0	1
SI_	24	0	1	96	288	4
HLD	26	0	7	384
HLD	28	0	6	384
HLD	30	0	5	384
HLD	32	0	4	384
TAP	34	0	3
TAP	34	96	3
TAP	34	192	3
TAP	35	0	2
TAP	35	96	2
TAP	35	192	2
TAP	36	0	1
TAP	36	96	1
TAP	36	192	1
TAP	37	0	0
TAP	37	96	0
TAP	37	192	0
TAP	37	192	7
HLD	38	0	6	384
HLD	38	0	7	384
HLD	40	0	0	384
HLD	40	0	1	384
TAP	42	0	7
TAP	42	96	7
TAP	42	192	7
TAP	43	0	6
TAP	43	96	6
TAP	43	192	6
TAP	44	0	5
TAP	44	96	5
TAP	44	192	5
TAP	45	0	4
TAP	45	96	4
TAP	45	192	3
TAP	45	192	4
HLD	46	0	2	384
HLD	46	0	3	384
HLD	48	0	4	384
HLD	48	0	5	384
TAP	50	0	3
TAP	50	0	5
TAP	50	192	3
TAP	50	192	5
TAP	51	0	2
TAP	51	0	4
TAP	51	192	2
TAP	51	192	4
STR	52	0	3
SI_	52	0	3	96	288	0
STR	52	0	4
SI_	52	0	4	96	288	7
HLD	55	0	1	192
HLD	56	0	2	192
HLD	57	0	3	192
HLD	58	0	4	192
HLD	59	0	5	192
HLD	60	0	6	192
STR	61	0	7
SI_	61	0	7	96	288	2
HLD	63	0	0	384
STR	65	0	0
SI_	65	0	0	96	288	5
HLD	67	0	7	384
BRK	69	0	7
TAP	71	0	0
TAP	71	96	0
TAP	71	192	0
TAP	72	0	1
TAP	72	96	1
TAP	72	192	1
TAP	73	0	2
TAP	73	96	2
TAP	73	192	2
TAP	74	0	3
TAP	74	96	3
TAP	74	192	3
TAP	74	192	4
HLD	75	0	4	192
TAP	76	0	4
TAP	76	96	4
TAP	76	192	3
TAP	76	192	5
HLD	77	0	3	192
TAP	78	0	3
TAP	78	96	3
TAP	78	192	2
TAP	78	192	4
TAP	79	0	4
TAP	79	96	4
TAP	79	192	4
TAP	80	0	5
TAP	80	96	5
TAP	80	192	5
TAP	81	0	6
TAP	81	96	6
TAP	81	192	6
TAP	82	0	7
TAP	82	96	7
TAP	82	192	0
TAP	82	192	7
HLD	83	0	0	192
TAP	84	0	0
TAP	84	96	0
TAP	84	192	1
TAP	84	192	7
HLD	85	0	7	192
TAP	86	0	7
TAP	86	96	7
TAP	86	192	0
TAP	86	192	6
HLD	87	0	1	288
HLD	87	0	6	288
TAP	89	0	2
TAP	89	96	2
TAP	89	192	2
TAP	89	288	2
TAP	90	0	3
TAP	90	96	3
TAP	90	192	3
TAP	90	288	3
HLD	91	0	4	192
TAP	92	0	4
TAP	92	96	4
TAP	92	192	3
TAP	92	192	5
HLD	93	0	3	192
TAP	94	0	3
TAP	94	96	3
TAP	94	192	2
TAP	94	192	4
TAP	95	0	5
TAP	95	96	5
TAP	95	192	5
TAP	95	288	5
TAP	96	0	6
TAP	96	96	6
TAP	96	192	6
TAP	96	288	6
TAP	97	0	7
TAP	97	96	7
TAP	97	192	7
TAP	97	288	7
BRK	98	0	0
TAP	99	0	0
TAP	99	96	0
TAP	99	192	0
TAP	99	288	0
TAP	100	0	1
TAP	100	96	1
TAP	100	192	1
TAP	100	288	1
TAP	101	0	2
TAP	101	96	2
TAP	101	192	2
TAP	101	288	2
TAP	102	0	3
TAP	102	96	3
TAP	102	192	3
TAP	102	192	4
TAP	103	0	4
TAP	103	96	4
TAP	103	192	4
TAP	103	288	4
TAP	104	0	5
TAP	104	96	5
TAP	104	192	5
TAP	104	288	5
TAP	105	0	6
TAP	105	96	6
TAP	105	192	6
TAP	105	288	6
TAP	106	0	7
TAP	106	96	7
TAP	106	192	0
TAP	106	192	7
STR	107	0	0
SI_	107	0	0	96	288	3
STR	109	0	4
SI_	109	0	4	96	288	7
BRK	111	0	1
BRK	111	0	6

T_REC_TAP	156
T_REC_BRK	4
T_REC_XTP	0
T_REC_HLD	32
T_REC_XHO	0
T_REC_STR	12
T_REC_BST	0
T_REC_XST	0
T_REC_TTP	0
T_REC_THO	0
T_REC_SLD	12
T_REC_ALL	216
T_NUM_TAP	168
T_NUM_BRK	4
T_NUM_HLD	32
T_NUM_SLD	12
T_NUM_ALL	216
T_JUDGE_TAP	172
T_JUDGE_HLD	204
T_JUDGE_SLD	12
T_JUDGE_ALL	388
TTM_EACHPAIRS	29
TTM_SCR_TAP	84000
TTM_SCR_BRK	10400
TTM_SCR_HLD	32000
TTM_SCR_SLD	18000
TTM_SCR_ALL	144400
TTM_SCR_S	139700
TTM_SCR_SS	144000
TTM_RAT_ACV	10027

