VERSION	0.00.00	1.03.00
FES_MODE	0
BPM_DEF	234.550	234.550	234.550	234.550
MET_DEF	4	4
RESOLUTION	384
CLK_DEF	384
COMPATIBLE_CODE	MA2

BPM	0	0	234.550

HLD	2	0	3	96
TAP	2	0	5
TAP	2	96	7
TAP	2	192	4
HLD	2	192	5	96
TAP	2	240	4
TAP	2	288	7
HLD	3	0	3	96
TAP	3	0	5
TAP	3	96	7
TAP	3	192	2
HLD	3	192	4	96
TAP	3	288	0
HLD	4	0	2	96
TAP	4	0	4
TAP	4	96	0
TAP	4	192	2
HLD	4	192	3	96
TAP	4	240	2
TAP	4	288	0
HLD	5	0	2	96
TAP	5	0	4
TAP	5	96	7
BST	5	192	3
SI_	5	192	3	96	48	0
BRK	5	192	5
HLD	6	0	6	96
TAP	6	96	7
TAP	6	144	7
TAP	6	192	6
TAP	6	240	7
TAP	6	288	0
TAP	6	288	5
HLD	7	0	1	96
TAP	7	96	0
TAP	7	144	0
TAP	7	192	1
TAP	7	240	0
TAP	7	288	2
TAP	7	288	7
HLD	8	0	0	96
TAP	8	96	7
TAP	8	144	7
TAP	8	192	0
TAP	8	240	0
TAP	8	288	0
TAP	8	288	7
TAP	8	336	0
TAP	8	336	7
TAP	9	0	1
TAP	9	0	6
TAP	9	48	1
TAP	9	48	6
TAP	9	96	2
TAP	9	96	5
TAP	9	144	2
TAP	9	144	5
TAP	9	192	3
TAP	9	192	4
BRK	9	288	1
BRK	9	288	6
HLD	10	0	5	96
TAP	10	48	4
HLD	10	96	3	96
TAP	10	144	4
HLD	10	192	5	96
TAP	10	240	4
HLD	10	288	3	96
TAP	10	336	4
HLD	11	0	5	96
TAP	11	48	4
HLD	11	96	2	96
TAP	11	144	3
TAP	11	192	5
TAP	11	240	4
TAP	11	288	3
TAP	11	288	6
HLD	12	0	2	96
TAP	12	48	3
HLD	12	96	4	96
TAP	12	144	3
HLD	12	192	2	96
TAP	12	240	3
HLD	12	288	4	96
TAP	12	336	3
HLD	13	0	2	96
TAP	13	48	3
HLD	13	96	5	96
TAP	13	144	4
BST	13	192	3
SI_	13	192	3	96	48	0
BRK	13	288	6
HLD	14	0	6	96
TAP	14	48	7
HLD	14	96	0	96
TAP	14	144	7
HLD	14	192	6	96
TAP	14	240	7
HLD	14	288	1	96
TAP	14	336	0
HLD	15	0	6	96
TAP	15	48	7
HLD	15	96	1	96
TAP	15	144	0
TAP	15	192	6
TAP	15	240	7
TAP	15	288	0
STR	15	288	5
SI_	15	288	5	96	48	2
STR	16	0	1
SI_	16	0	1	96	48	6
STR	16	96	5
SI_	16	96	5	96	48	2
STR	16	192	1
SI_	16	192	1	96	48	6
STR	16	288	5
SCL	16	288	5	96	48	2
STR	17	0	1
SCL	17	0	1	96	48	6
TAP	17	96	5
TAP	17	192	4
TAP	17	192	5
TAP	17	288	2
TAP	17	288	3
TAP	18	0	1
HLD	18	0	4	192
HLD	18	192	2	192
HLD	19	0	3	192
HLD	19	192	4	192
HLD	20	0	5	192
HLD	20	192	4	192
TAP	21	0	3
TAP	21	192	3
TAP	21	240	3
TAP	21	288	4
TAP	21	336	4
TAP	22	0	2
HLD	22	0	5	192
HLD	22	192	2	96
HLD	22	288	3	96
HLD	23	0	1	96
HLD	23	96	4	96
HLD	23	192	3	96
HLD	23	288	6	96
HLD	24	0	4	96
HLD	24	96	5	96
HLD	24	192	4	96
STR	24	288	6
SLR	24	288	6	96	288	2
SLR	24	288	6	96	288	4
HLD	26	0	2	96
TAP	26	0	3
TAP	26	96	3
TAP	26	144	2
TAP	26	192	2
TAP	26	192	3
TAP	26	288	1
TAP	26	288	4
TAP	27	0	2
TAP	27	32	3
TAP	27	64	4
TAP	27	96	5
TAP	27	192	3
TAP	27	192	6
TAP	27	288	4
TAP	27	288	5
TAP	28	0	4
HLD	28	0	5	96
TAP	28	96	4
TAP	28	144	5
TAP	28	192	4
TAP	28	192	5
TAP	28	288	3
TAP	28	288	4
HLD	29	0	2	96
TAP	29	0	3
TAP	29	96	3
TAP	29	144	2
TAP	29	192	2
TAP	29	192	3
TAP	29	288	1
TAP	29	288	4
TAP	30	0	3
HLD	30	0	4	96
TAP	30	96	2
HLD	30	192	3	96
TAP	30	192	4
TAP	30	288	5
TAP	31	0	3
HLD	31	0	4	96
TAP	31	96	1
TAP	31	192	1
TAP	31	192	3
TAP	31	264	3
TAP	31	264	4
TAP	31	336	4
TAP	31	336	6
HLD	32	0	4	96
TAP	32	0	6
TAP	32	96	7
TAP	32	192	1
HLD	32	192	3	96
TAP	32	288	0
HLD	33	0	1	96
HLD	33	96	3	96
HLD	33	192	4	96
TAP	33	288	6
TAP	34	0	3
TAP	34	48	3
TAP	34	96	5
TAP	34	144	5
TAP	34	192	1
TAP	34	240	1
TAP	34	288	6
TAP	34	336	6
TAP	35	0	0
TAP	35	24	7
TAP	35	48	0
TAP	35	72	7
TAP	35	96	0
TAP	35	120	7
TAP	35	144	0
TAP	35	168	7
TAP	35	192	0
TAP	35	216	7
TAP	35	240	0
BRK	35	288	1
BRK	35	288	6
STR	36	0	1
SI_	36	0	1	96	48	3
TAP	36	96	0
TAP	36	96	1
STR	36	192	5
SI_	36	192	5	96	48	7
TAP	36	288	4
TAP	36	288	5
STR	37	0	0
SI_	37	0	0	96	48	4
TAP	37	96	0
STR	37	96	4
SI_	37	96	4	96	48	2
SI_	37	96	4	96	48	6
TAP	37	288	1
TAP	37	288	7
STR	38	0	6
SI_	38	0	6	96	48	4
TAP	38	96	6
TAP	38	96	7
STR	38	192	2
SI_	38	192	2	96	48	0
TAP	38	288	2
TAP	38	288	3
TAP	39	0	5
TAP	39	0	7
STR	39	96	3
SI_	39	96	3	96	48	1
STR	39	96	5
SI_	39	96	5	96	48	3
BST	39	192	3
SI_	39	192	3	96	48	7
BRK	39	192	5
BRK	39	288	0
STR	40	0	0
SI_	40	0	0	96	48	4
TAP	40	96	0
TAP	40	96	7
STR	40	192	5
SI_	40	192	5	96	48	1
TAP	40	288	4
TAP	40	288	5
STR	41	0	3
SI_	41	0	3	96	48	7
TAP	41	96	2
TAP	41	96	3
STR	41	192	0
SI_	41	192	0	96	48	3
SI_	41	192	0	96	48	5
BRK	41	288	0
STR	42	0	6
SI_	42	0	6	96	48	3
TAP	42	96	6
TAP	42	96	7
STR	42	192	1
SI_	42	192	1	96	48	4
TAP	42	288	0
TAP	42	288	1
STR	43	0	7
SF_	43	0	7	96	48	3
BRK	43	192	1
BRK	43	192	5
BRK	43	288	3
BRK	43	288	7
HLD	44	0	0	48
HLD	44	0	1	48
HLD	44	96	4	48
HLD	44	96	6	48
HLD	44	192	1	48
HLD	44	192	3	48
HLD	44	288	6	48
HLD	44	288	7	48
HLD	45	0	4	48
HLD	45	0	5	48
HLD	45	96	1	48
HLD	45	96	3	48
STR	45	192	4
SI_	45	192	4	96	48	0
STR	45	192	6
SV_	45	192	6	96	48	0
HLD	46	0	1	48
HLD	46	0	7	48
HLD	46	96	4	48
HLD	46	96	6	48
HLD	46	192	2	48
HLD	46	192	3	48
HLD	46	288	6	48
HLD	46	288	7	48
HLD	47	0	1	48
HLD	47	0	3	48
HLD	47	96	4	48
HLD	47	96	6	48
STR	47	192	1
SV_	47	192	1	96	48	7
STR	47	192	3
SI_	47	192	3	96	48	7
HLD	48	0	0	48
HLD	48	0	6	48
HLD	48	96	1	48
HLD	48	96	3	48
HLD	48	192	5	48
HLD	48	192	6	48
HLD	48	288	2	48
HLD	48	288	3	48
HLD	49	0	6	48
HLD	49	0	7	48
HLD	49	96	1	48
HLD	49	96	2	48
HLD	49	192	4	48
HLD	49	192	5	48
TAP	49	288	3
TAP	49	288	6
BRK	50	0	2
TAP	50	0	4
TAP	50	48	2
TAP	50	96	5
TAP	50	144	5
TAP	50	192	3
BRK	50	192	6
TAP	50	240	6
TAP	50	288	1
TAP	50	336	1
BRK	51	0	0
TAP	51	0	5
TAP	51	48	0
TAP	51	96	6
TAP	51	144	6
TAP	51	192	0
TAP	51	216	7
TAP	51	240	0
TAP	51	264	7
BRK	51	288	1
BRK	51	288	6
STR	52	0	1
SI_	52	0	1	96	48	4
TAP	52	48	1
STR	52	96	0
SI_	52	96	0	96	48	5
TAP	52	144	0
STR	52	192	1
SI_	52	192	1	96	48	4
TAP	52	240	1
STR	52	288	7
SI_	52	288	7	96	48	4
TAP	52	336	7
STR	53	0	0
SI_	53	0	0	96	48	3
TAP	53	48	0
STR	53	96	7
SI_	53	96	7	96	48	4
TAP	53	144	7
STR	53	192	0
SI_	53	192	0	96	48	3
TAP	53	240	0
STR	53	288	6
SI_	53	288	6	96	48	3
TAP	53	336	6
STR	54	0	7
SI_	54	0	7	96	48	2
TAP	54	48	7
STR	54	96	6
SI_	54	96	6	96	48	3
TAP	54	144	6
STR	54	192	7
SI_	54	192	7	96	48	2
TAP	54	240	7
STR	54	288	5
SI_	54	288	5	96	48	2
TAP	54	336	5
STR	55	0	1
SI_	55	0	1	96	48	6
TAP	55	48	1
STR	55	96	5
SI_	55	96	5	96	48	2
TAP	55	144	5
TAP	55	192	0
TAP	55	240	0
TAP	55	288	1
TAP	55	336	2
STR	56	0	3
SI_	56	0	3	96	48	7
STR	56	0	6
SI_	56	0	6	96	48	3
STR	56	192	0
SCR	56	192	0	96	96	4
STR	56	288	4
SCR	56	288	4	96	96	0
STR	57	0	0
SCR	57	0	0	96	96	4
STR	57	96	4
SCR	57	96	4	96	96	0
STR	57	192	0
SCR	57	192	0	96	96	4
TAP	57	288	4
HLD	58	0	6	96
HLD	58	96	4	96
HLD	58	192	3	96
HLD	58	288	1	96
TAP	59	0	0
TAP	59	24	7
TAP	59	48	6
TAP	59	72	5
BRK	59	96	0
BRK	59	96	4
BRK	59	192	2
BRK	59	192	6
BRK	59	288	0
BRK	59	288	5
STR	60	0	1
SI_	60	0	1	96	48	4
STR	60	96	6
SI_	60	96	6	96	48	3
STR	60	192	2
SI_	60	192	2	96	48	7
TAP	60	288	7
TAP	61	0	6
TAP	61	32	6
TAP	61	64	4
TAP	61	96	4
TAP	61	96	5
TAP	61	192	1
TAP	61	192	3
TAP	61	288	6
TAP	61	288	7
TAP	62	0	0
TAP	62	24	1
TAP	62	48	2
TAP	62	72	3
TAP	62	96	4
TAP	62	120	5
TAP	62	144	6
TAP	62	168	7
TAP	62	192	0
TAP	62	216	1
TAP	62	240	2
TAP	62	264	3
TAP	62	288	4
TAP	62	312	5
TAP	62	336	6
TAP	62	360	7
TAP	63	0	0
TAP	63	0	4
TAP	63	24	1
TAP	63	48	2
TAP	63	72	3
TAP	63	96	0
TAP	63	96	4
TAP	63	120	5
TAP	63	144	6
TAP	63	168	7
TAP	63	192	0
TAP	63	192	4
TAP	63	216	1
TAP	63	240	2
TAP	63	264	3
BRK	63	288	4
BRK	63	288	6
STR	64	0	0
SI_	64	0	0	96	48	2
TAP	64	48	0
STR	64	96	7
SI_	64	96	7	96	48	3
TAP	64	144	7
STR	64	192	0
SI_	64	192	0	96	48	4
TAP	64	240	0
TAP	64	288	7
TAP	64	336	7
STR	65	0	2
SI_	65	0	2	96	48	7
STR	65	0	6
SI_	65	0	6	96	48	3
TAP	65	192	0
HLD	65	192	4	72
HLD	65	264	2	72
TAP	65	336	5
STR	66	0	3
SCL	66	0	3	96	48	0
TAP	66	0	5
TAP	66	96	7
TAP	66	144	7
TAP	66	192	2
STR	66	192	4
SCR	66	192	4	96	48	7
TAP	66	288	0
TAP	66	336	0
BRK	67	0	1
BRK	67	0	3
BRK	67	96	4
BRK	67	96	6
BST	67	192	0
SI_	67	192	0	96	48	3
BST	67	192	7
SI_	67	192	7	96	48	4
STR	68	0	2
SI_	68	0	2	96	48	4
STR	68	96	6
SI_	68	96	6	96	48	0
STR	68	192	2
SI_	68	192	2	96	48	4
TAP	68	288	6
STR	69	0	7
SI_	69	0	7	96	48	4
STR	69	96	0
SI_	69	96	0	96	48	3
STR	69	192	7
SI_	69	192	7	96	48	4
TAP	69	288	1
STR	70	0	2
SI_	70	0	2	96	48	4
STR	70	96	6
SI_	70	96	6	96	48	0
STR	70	192	2
SI_	70	192	2	96	48	4
TAP	70	288	6
STR	71	0	7
SCL	71	0	7	96	48	4
STR	71	96	0
SCR	71	96	0	96	48	3
BRK	71	192	7
BRK	71	288	1
BRK	71	288	5
STR	72	0	3
SI_	72	0	3	96	48	0
STR	72	96	4
SI_	72	96	4	96	48	7
STR	72	192	3
SI_	72	192	3	96	48	0
TAP	72	288	5
STR	73	0	6
SI_	73	0	6	96	48	0
STR	73	96	2
SI_	73	96	2	96	48	4
STR	73	192	6
SI_	73	192	6	96	48	0
TAP	73	288	2
STR	74	0	3
SCL	74	0	3	96	48	0
STR	74	96	4
SCR	74	96	4	96	48	7
STR	74	192	3
SCL	74	192	3	96	48	0
TAP	74	288	5
TAP	75	0	6
TAP	75	24	7
TAP	75	48	6
TAP	75	96	1
TAP	75	120	0
TAP	75	144	1
TAP	75	192	5
TAP	75	216	4
TAP	75	240	5
BRK	75	288	3
BRK	75	288	6
HLD	76	0	2	96
TAP	76	96	3
TAP	76	192	1
TAP	76	192	4
HLD	76	336	5	144
TAP	77	96	4
TAP	77	192	3
TAP	77	192	6
HLD	78	0	2	96
TAP	78	96	3
TAP	78	192	1
TAP	78	192	4
HLD	78	336	5	144
TAP	79	96	4
TAP	79	192	3
TAP	79	192	6
HLD	80	0	2	96
TAP	80	96	3
TAP	80	192	1
TAP	80	192	4
HLD	80	336	5	144
TAP	81	96	4
TAP	81	192	3
TAP	81	192	6
HLD	82	0	3	96
TAP	82	96	4
TAP	82	192	2
TAP	82	192	5
STR	83	0	5
SI_	83	0	5	96	240	0
TAP	83	96	5
TAP	83	192	5
TAP	83	288	5
STR	84	0	2
SI_	84	0	2	96	240	7
TAP	84	96	2
TAP	84	192	2
TAP	84	288	2
STR	85	0	4
SI_	85	0	4	96	240	0
TAP	85	96	4
TAP	85	192	4
TAP	85	288	4
STR	86	0	3
SI_	86	0	3	96	240	7
TAP	86	96	3
TAP	86	192	3
TAP	86	288	3
STR	87	0	4
SI_	87	0	4	96	96	6
TAP	87	96	3
TAP	87	96	4
STR	87	192	3
SI_	87	192	3	96	96	1
TAP	87	288	3
TAP	87	288	4
STR	88	0	4
SI_	88	0	4	96	96	7
TAP	88	96	3
TAP	88	96	4
STR	88	192	3
SI_	88	192	3	96	96	0
TAP	88	288	3
TAP	88	288	4
STR	89	0	4
SI_	89	0	4	96	96	0
TAP	89	96	3
TAP	89	96	4
STR	89	192	3
SI_	89	192	3	96	96	7
TAP	89	288	3
TAP	89	288	4
TAP	90	0	4
TAP	90	48	4
TAP	90	96	2
TAP	90	144	2
TAP	90	192	6
TAP	90	240	6
TAP	90	288	0
TAP	90	288	7
TAP	90	336	0
TAP	90	336	7
HLD	91	0	1	192
TAP	91	0	6
TAP	91	192	0
TAP	91	216	7
TAP	91	240	6
TAP	91	264	5
BRK	91	288	1
BRK	91	288	4
STR	92	0	6
SI_	92	0	6	96	48	3
TAP	92	48	6
STR	92	96	0
SI_	92	96	0	96	48	4
TAP	92	144	0
STR	92	192	6
SI_	92	192	6	96	48	3
TAP	92	240	6
STR	92	288	0
SI_	92	288	0	96	48	4
TAP	92	336	0
STR	93	0	6
SI_	93	0	6	96	48	1
TAP	93	48	6
STR	93	96	2
SI_	93	96	2	96	48	5
TAP	93	144	2
STR	93	192	6
SI_	93	192	6	96	48	1
TAP	93	240	6
STR	93	288	2
SI_	93	288	2	96	48	5
TAP	93	336	2
STR	94	0	6
SI_	94	0	6	96	48	3
TAP	94	48	6
STR	94	96	2
SI_	94	96	2	96	48	7
TAP	94	144	2
STR	94	192	6
SI_	94	192	6	96	48	3
TAP	94	240	6
STR	94	288	1
SI_	94	288	1	96	48	4
TAP	94	336	1
STR	95	0	5
SI_	95	0	5	96	48	0
TAP	95	48	5
STR	95	96	1
SI_	95	96	1	96	48	4
TAP	95	144	1
TAP	95	192	7
TAP	95	240	7
TAP	95	288	6
TAP	95	336	5
STR	96	0	1
SCR	96	0	1	96	48	4
STR	96	0	4
SI_	96	0	4	96	48	0
STR	96	192	7
SCL	96	192	7	96	96	3
STR	96	288	3
SCL	96	288	3	96	96	7
STR	97	0	7
SLL	97	0	7	96	96	3
STR	97	96	3
SLL	97	96	3	96	96	7
STR	97	192	7
SLL	97	192	7	96	96	3
TAP	97	288	3
HLD	98	0	2	96
HLD	98	96	0	96
HLD	98	192	6	96
HLD	98	288	4	96
STR	99	0	0
SCL	99	0	0	96	48	5
TAP	99	24	1
TAP	99	48	2
TAP	99	72	3
BST	99	96	0
SI_	99	96	0	96	48	4
BRK	99	192	0
BRK	99	288	2
BRK	99	288	6
STR	100	0	6
SCL	100	0	6	96	48	3
STR	100	96	1
SCR	100	96	1	96	48	4
TAP	100	96	6
TAP	100	192	1
STR	100	192	5
SCR	100	192	5	96	48	0
TAP	100	288	0
TAP	100	288	5
TAP	101	0	1
TAP	101	32	1
TAP	101	64	3
TAP	101	96	2
TAP	101	96	3
TAP	101	192	4
TAP	101	192	6
TAP	101	288	0
TAP	101	288	1
TAP	102	0	3
TAP	102	0	7
TAP	102	24	6
TAP	102	48	5
TAP	102	72	4
TAP	102	96	3
TAP	102	96	7
TAP	102	120	2
TAP	102	144	1
TAP	102	168	0
TAP	102	192	3
TAP	102	192	7
TAP	102	216	6
TAP	102	240	5
TAP	102	264	4
TAP	102	288	3
TAP	102	288	7
TAP	102	312	2
TAP	102	336	1
TAP	102	360	0
TAP	103	0	3
TAP	103	0	7
TAP	103	24	6
TAP	103	48	5
TAP	103	72	4
TAP	103	96	3
TAP	103	96	7
TAP	103	120	2
TAP	103	144	1
TAP	103	168	0
TAP	103	192	3
TAP	103	192	7
TAP	103	216	6
TAP	103	240	5
TAP	103	264	4
BRK	103	288	1
BRK	103	288	3
STR	104	0	6
SI_	104	0	6	96	48	2
TAP	104	48	6
STR	104	96	1
SI_	104	96	1	96	48	5
TAP	104	144	1
STR	104	192	7
SI_	104	192	7	96	48	3
TAP	104	240	7
TAP	104	288	0
TAP	104	336	0
STR	105	0	1
SI_	105	0	1	96	48	4
STR	105	0	5
SI_	105	0	5	96	48	0
HLD	105	192	3	72
TAP	105	192	7
HLD	105	264	5	72
TAP	105	336	3
STR	106	0	3
SCL	106	0	3	96	48	0
TAP	106	0	4
TAP	106	96	7
TAP	106	144	7
TAP	106	192	3
STR	106	192	4
SCR	106	192	4	96	48	7
TAP	106	288	0
TAP	106	336	0
BST	107	0	1
SI_	107	0	1	96	48	4
BRK	107	0	3
BRK	107	96	1
BST	107	96	7
SI_	107	96	7	96	48	3
BRK	107	192	0
BRK	107	192	7
BRK	107	288	1
BRK	107	288	5
STR	108	0	2
SI_	108	0	2	96	48	7
TAP	108	48	2
STR	108	96	4
SI_	108	96	4	96	48	0
TAP	108	144	4
STR	108	192	1
SI_	108	192	1	96	48	5
TAP	108	240	1
STR	108	288	7
SI_	108	288	7	96	48	3
TAP	108	336	7
STR	109	0	2
SI_	109	0	2	96	48	5
TAP	109	48	2
STR	109	96	6
SI_	109	96	6	96	48	3
TAP	109	144	6
STR	109	192	2
SI_	109	192	2	96	48	7
TAP	109	240	2
STR	109	288	5
SI_	109	288	5	96	48	0
TAP	109	336	5
STR	110	0	1
SI_	110	0	1	96	48	4
TAP	110	48	1
STR	110	96	6
SI_	110	96	6	96	48	2
TAP	110	144	6
STR	110	192	3
SCL	110	192	3	96	48	0
TAP	110	240	3
STR	110	288	7
SCL	110	288	7	96	48	4
TAP	110	336	7
STR	111	0	1
SI_	111	0	1	96	48	5
TAP	111	48	1
STR	111	96	3
SI_	111	96	3	96	48	7
TAP	111	144	3
TAP	111	192	0
TAP	111	240	0
TAP	111	288	1
TAP	111	336	2
BST	112	0	3
SUR	112	0	3	96	48	7
BST	112	0	6
SCL	112	0	6	96	48	3
STR	112	192	0
SCR	112	192	0	96	96	4
STR	112	288	4
SLR	112	288	4	96	96	0
STR	113	0	0
SLR	113	0	0	96	96	4
TAP	113	96	4
TAP	113	192	7
TAP	113	240	7
TAP	113	288	3
TAP	113	288	7
TAP	113	312	2
TAP	113	312	6
TAP	113	336	1
TAP	113	336	5
TAP	113	360	0
TAP	113	360	4
BRK	114	0	3
BST	114	0	7
SF_	114	0	7	96	48	3
BST	114	192	0
SF_	114	192	0	96	48	4
STR	115	0	0
SCL	115	0	0	96	48	5
TAP	115	24	1
TAP	115	48	2
TAP	115	72	3
BST	115	96	0
SI_	115	96	0	96	48	4
BRK	115	192	0
BRK	115	288	2
BRK	115	288	6
STR	116	0	5
SCR	116	0	5	96	48	0
TAP	116	48	5
STR	116	96	2
SCL	116	96	2	96	48	7
TAP	116	144	2
STR	116	192	6
SCL	116	192	6	96	48	3
TAP	116	240	6
TAP	116	288	2
TAP	116	336	2
TAP	117	0	1
TAP	117	32	1
TAP	117	64	7
TAP	117	96	0
TAP	117	96	7
TAP	117	192	4
TAP	117	192	6
TAP	117	288	1
TAP	117	288	3
TAP	118	0	0
TAP	118	0	4
TAP	118	24	5
TAP	118	48	6
TAP	118	72	7
TAP	118	96	0
TAP	118	96	4
TAP	118	120	1
TAP	118	144	2
TAP	118	168	3
TAP	118	192	0
TAP	118	192	4
TAP	118	216	5
TAP	118	240	6
TAP	118	264	7
TAP	118	288	0
TAP	118	288	4
TAP	118	312	1
TAP	118	336	2
TAP	118	360	3
TAP	119	0	0
TAP	119	0	4
TAP	119	24	5
TAP	119	48	6
TAP	119	72	7
TAP	119	96	0
TAP	119	96	4
TAP	119	120	1
TAP	119	144	2
TAP	119	168	3
TAP	119	192	0
TAP	119	192	4
TAP	119	216	1
TAP	119	216	5
TAP	119	240	2
TAP	119	240	6
TAP	119	264	3
TAP	119	264	7
BRK	119	288	0
BRK	119	288	4
STR	120	0	3
SI_	120	0	3	96	48	7
TAP	120	48	3
STR	120	96	5
SI_	120	96	5	96	48	1
TAP	120	144	5
STR	120	192	2
SI_	120	192	2	96	48	7
TAP	120	240	2
TAP	120	288	5
TAP	120	336	5
STR	121	0	0
SV_	121	0	0	96	48	2
STR	121	0	4
SV_	121	0	4	96	48	6
HLD	121	192	1	72
TAP	121	192	5
HLD	121	264	4	72
TAP	121	336	2
TAP	122	0	2
STR	122	0	3
SUR	122	0	3	96	48	7
TAP	122	96	0
TAP	122	144	0
STR	122	192	4
SUL	122	192	4	96	48	0
TAP	122	192	5
TAP	122	288	7
TAP	122	336	7
BST	123	0	7
SCL	123	0	7	96	48	4
SCR	123	0	7	96	48	2
BST	123	96	7
SF_	123	96	7	96	48	3
BRK	123	192	7
BRK	123	288	1
BRK	123	288	5
BRK	124	0	6
TAP	124	0	7
TAP	124	48	6
TAP	124	96	4
TAP	124	96	6
TAP	124	192	0
BRK	124	192	1
TAP	124	240	1
TAP	124	288	1
TAP	124	288	3
TAP	125	0	4
BRK	125	0	6
TAP	125	48	6
TAP	125	96	6
TAP	125	96	7
BRK	125	192	1
TAP	125	192	3
TAP	125	240	1
TAP	125	288	0
TAP	125	288	1
BRK	126	0	3
TAP	126	0	7
TAP	126	48	3
TAP	126	48	7
BRK	126	96	2
TAP	126	96	6
TAP	126	144	2
TAP	126	144	6
BRK	126	192	1
TAP	126	192	5
TAP	126	240	1
TAP	126	240	5
BRK	126	288	0
TAP	126	288	4
TAP	126	336	0
TAP	126	336	4
BRK	127	0	0
TAP	127	24	1
TAP	127	48	2
TAP	127	72	3
BRK	127	96	7
TAP	127	120	6
TAP	127	144	5
TAP	127	168	4
BRK	127	192	0
TAP	127	204	1
TAP	127	216	2
TAP	127	228	3
TAP	127	240	4
TAP	127	252	5
TAP	127	264	6
TAP	127	276	7
BRK	127	288	0
TAP	127	300	1
TAP	127	312	2
TAP	127	324	3
TAP	127	336	4
TAP	127	348	5
TAP	127	360	6
TAP	127	372	7
BRK	128	0	0
TAP	128	0	4
BRK	130	0	0
BRK	132	0	0

T_REC_TAP	570
T_REC_BRK	72
T_REC_XTP	0
T_REC_HLD	115
T_REC_XHO	0
T_REC_STR	147
T_REC_BST	15
T_REC_XST	0
T_REC_TTP	0
T_REC_THO	0
T_REC_SLD	166
T_REC_ALL	1085
T_NUM_TAP	717
T_NUM_BRK	87
T_NUM_HLD	115
T_NUM_SLD	166
T_NUM_ALL	1085
T_JUDGE_TAP	804
T_JUDGE_HLD	211
T_JUDGE_SLD	166
T_JUDGE_ALL	1181
TTM_EACHPAIRS	190
TTM_SCR_TAP	358500
TTM_SCR_BRK	226200
TTM_SCR_HLD	115000
TTM_SCR_SLD	249000
TTM_SCR_ALL	948700
TTM_SCR_S	911800
TTM_SCR_SS	940000
TTM_RAT_ACV	10092

