VERSION	0.00.00	1.03.00
FES_MODE	0
BPM_DEF	234.550	234.550	234.550	234.550
MET_DEF	4	4
RESOLUTION	384
CLK_DEF	384
COMPATIBLE_CODE	MA2

BPM	0	0	234.550

TAP	2	0	4
TAP	2	96	6
TAP	2	96	7
TAP	2	192	0
HLD	2	288	0	96
STR	3	0	7
SUR	3	0	7	96	192	4
TAP	4	0	3
TAP	4	96	0
TAP	4	96	1
TAP	4	192	7
HLD	4	288	7	96
TAP	5	0	1
TAP	5	96	2
TAP	5	96	5
BST	5	192	3
SI_	5	192	3	96	48	1
BRK	5	192	4
TAP	6	0	7
TAP	6	96	4
TAP	6	96	5
TAP	6	192	1
HLD	6	288	1	96
TAP	7	0	0
TAP	7	96	2
TAP	7	96	3
TAP	7	192	6
HLD	7	288	6	96
TAP	8	0	7
TAP	8	96	3
TAP	8	96	4
TAP	8	192	0
TAP	8	288	3
TAP	8	288	4
STR	9	0	2
SUL	9	0	2	96	192	4
STR	9	0	5
SUR	9	0	5	96	192	3
TAP	10	0	5
TAP	10	96	6
TAP	10	96	7
TAP	10	192	4
TAP	10	288	1
TAP	10	288	7
TAP	11	0	3
TAP	11	96	0
TAP	11	96	1
HLD	11	192	3	96
HLD	11	192	5	96
TAP	12	0	2
TAP	12	96	0
TAP	12	96	1
TAP	12	192	3
TAP	12	288	0
TAP	12	288	6
TAP	13	0	4
TAP	13	96	6
TAP	13	96	7
HLD	13	192	2	96
HLD	13	192	4	96
TAP	14	0	5
TAP	14	96	0
TAP	14	96	1
TAP	14	192	2
TAP	14	192	3
TAP	14	288	1
TAP	14	288	7
TAP	15	0	2
TAP	15	96	6
TAP	15	96	7
TAP	15	192	4
TAP	15	192	5
TAP	15	288	0
TAP	15	288	6
HLD	16	0	7	96
HLD	16	96	6	96
HLD	16	192	5	96
HLD	16	288	4	96
HLD	17	0	3	96
HLD	17	96	2	96
HLD	17	192	1	96
BRK	17	288	0
STR	18	0	3
SXL	18	0	3	96	480	0
HLD	18	0	5	576
HLD	20	0	1	576
STR	20	0	7
SXL	20	0	7	96	480	4
HLD	22	0	5	384
HLD	23	0	4	384
HLD	24	0	3	192
HLD	24	192	2	192
TAP	25	0	3
HLD	26	0	4	96
HLD	26	0	5	96
TAP	26	144	4
TAP	26	144	5
TAP	26	288	2
HLD	27	0	2	96
HLD	27	0	3	96
TAP	27	144	2
TAP	27	144	3
TAP	27	288	5
HLD	28	0	4	96
HLD	28	0	6	96
TAP	28	144	4
TAP	28	144	6
TAP	28	288	2
HLD	29	0	1	96
HLD	29	0	3	96
TAP	29	144	1
TAP	29	144	3
TAP	29	288	5
STR	30	0	0
SCL	30	0	0	96	96	5
HLD	30	0	7	192
HLD	31	0	0	192
STR	31	0	7
SCR	31	0	7	96	96	2
STR	32	0	3
SCL	32	0	3	96	96	0
STR	32	0	4
SCR	32	0	4	96	96	7
BRK	33	0	0
BRK	33	0	7
BRK	33	96	1
BRK	33	96	6
BRK	33	192	2
BRK	33	192	5
BRK	33	288	3
BRK	33	288	4
HLD	34	0	3	96
HLD	34	96	2	96
HLD	34	192	1	96
HLD	34	288	0	96
HLD	35	0	4	96
HLD	35	96	5	96
HLD	35	192	6	96
BRK	35	288	7
TAP	36	0	0
TAP	36	96	5
TAP	36	96	7
TAP	36	192	0
TAP	36	288	5
TAP	36	288	7
STR	37	0	4
SCL	37	0	4	96	144	1
STR	37	0	5
SUL	37	0	5	96	144	0
BRK	37	288	7
TAP	38	0	3
TAP	38	96	0
TAP	38	96	2
TAP	38	192	3
TAP	38	288	0
TAP	38	288	2
TAP	39	0	1
TAP	39	0	7
TAP	39	96	0
TAP	39	96	6
TAP	39	192	0
BST	39	192	7
SI_	39	192	7	96	48	5
TAP	40	0	0
TAP	40	96	2
TAP	40	96	6
TAP	40	192	3
TAP	40	288	1
TAP	40	288	5
STR	41	0	0
SUL	41	0	0	96	120	3
STR	41	0	7
SCL	41	0	7	96	120	4
BRK	41	288	1
BRK	41	288	5
TAP	42	0	4
TAP	42	96	2
TAP	42	96	6
TAP	42	192	0
TAP	42	288	2
TAP	42	288	6
TAP	43	0	3
TAP	43	0	5
BRK	43	96	0
BRK	43	192	4
BRK	43	288	0
TAP	44	0	3
TAP	44	96	0
TAP	44	96	6
TAP	44	192	3
TAP	44	288	0
TAP	44	288	6
TAP	45	0	5
TAP	45	0	7
TAP	45	96	4
TAP	45	96	6
TAP	45	192	3
TAP	45	192	5
TAP	45	288	2
TAP	45	288	4
TAP	46	0	3
TAP	46	96	1
TAP	46	96	7
TAP	46	192	3
TAP	46	288	1
TAP	46	288	7
TAP	47	0	0
TAP	47	0	2
TAP	47	96	1
TAP	47	96	3
TAP	47	192	2
TAP	47	192	4
TAP	47	288	3
TAP	47	288	5
TAP	48	0	3
TAP	48	0	4
TAP	48	96	6
TAP	48	192	3
TAP	48	192	4
TAP	48	288	1
TAP	49	0	6
TAP	49	0	7
TAP	49	96	0
TAP	49	96	5
TAP	49	192	1
TAP	49	192	4
TAP	49	288	2
TAP	49	288	3
HLD	50	0	4	96
HLD	50	0	6	96
HLD	50	192	1	96
HLD	50	192	3	96
STR	51	0	3
SI_	51	0	3	96	96	0
STR	51	0	4
SI_	51	0	4	96	96	7
BRK	51	288	1
BRK	51	288	6
TAP	52	0	3
TAP	52	0	4
TAP	52	96	1
TAP	52	144	1
TAP	52	192	3
TAP	52	288	5
TAP	52	288	7
TAP	53	0	3
TAP	53	0	4
TAP	53	96	6
TAP	53	144	6
TAP	53	192	4
TAP	53	288	0
TAP	53	288	2
TAP	54	0	3
TAP	54	0	4
TAP	54	96	5
TAP	54	144	5
TAP	54	192	7
TAP	54	288	2
TAP	54	336	2
TAP	55	0	0
TAP	55	96	3
TAP	55	96	4
TAP	55	192	6
TAP	55	192	7
TAP	55	288	0
TAP	55	288	1
HLD	56	0	0	96
STR	56	0	7
SI_	56	0	7	96	48	4
STR	56	192	3
SI_	56	192	3	96	48	7
TAP	57	0	0
TAP	57	0	6
TAP	57	96	4
TAP	57	96	5
TAP	57	192	1
TAP	57	192	7
TAP	57	288	2
TAP	57	288	3
TAP	58	0	4
TAP	58	0	5
TAP	58	96	0
TAP	58	96	1
TAP	58	192	2
TAP	58	192	3
TAP	58	288	0
TAP	58	288	7
TAP	59	0	1
TAP	59	0	6
BRK	59	96	4
BRK	59	96	5
BRK	59	192	2
BRK	59	192	3
BRK	59	288	4
BRK	59	288	5
TAP	60	0	1
TAP	60	0	3
TAP	60	96	1
TAP	60	96	4
TAP	60	192	1
TAP	60	192	5
TAP	60	288	1
TAP	60	288	6
TAP	61	0	5
TAP	61	48	5
TAP	61	96	4
TAP	61	192	2
TAP	61	240	2
TAP	61	288	3
TAP	62	0	2
TAP	62	0	5
TAP	62	96	1
TAP	62	96	5
TAP	62	192	0
TAP	62	192	5
TAP	62	288	5
TAP	62	288	7
TAP	63	0	6
TAP	63	48	6
TAP	63	96	7
TAP	63	192	1
TAP	63	240	1
TAP	63	288	0
STR	64	0	0
SUR	64	0	0	96	96	5
HLD	64	0	7	192
TAP	64	288	4
TAP	64	288	6
HLD	65	0	0	192
STR	65	0	7
SUL	65	0	7	96	96	2
TAP	65	288	1
TAP	65	288	3
STR	66	0	3
SUR	66	0	3	96	192	0
STR	66	0	4
SUL	66	0	4	96	192	7
BRK	67	0	1
BRK	67	0	6
TAP	67	96	2
TAP	67	96	3
BRK	67	192	0
BRK	67	192	7
TAP	67	288	4
TAP	67	288	5
TAP	68	0	1
HLD	68	0	6	480
TAP	68	96	2
TAP	68	192	3
TAP	68	288	4
HLD	69	0	5	96
TAP	69	192	3
TAP	69	192	4
HLD	70	0	1	480
TAP	70	0	6
TAP	70	96	5
TAP	70	192	4
TAP	70	288	3
HLD	71	0	2	96
TAP	71	192	3
TAP	71	192	4
BRK	71	288	6
TAP	72	0	4
HLD	72	0	5	192
TAP	72	96	3
TAP	72	192	4
TAP	72	288	1
HLD	73	0	2	192
TAP	73	0	3
TAP	73	96	4
TAP	73	192	3
TAP	73	288	5
TAP	74	0	3
TAP	74	96	3
TAP	74	192	4
TAP	74	288	4
HLD	75	0	2	96
HLD	75	0	5	96
BRK	75	192	1
BRK	75	192	6
TAP	76	0	2
TAP	76	96	3
TAP	76	192	4
HLD	76	336	5	144
TAP	77	96	4
TAP	77	192	3
TAP	77	192	4
TAP	78	0	5
TAP	78	96	4
TAP	78	192	3
HLD	78	336	2	144
TAP	79	96	3
TAP	79	192	3
TAP	79	192	4
TAP	80	0	2
TAP	80	96	4
TAP	80	192	3
HLD	80	336	5	144
TAP	81	96	4
TAP	81	192	3
TAP	81	192	4
TAP	82	0	5
TAP	82	96	3
TAP	82	192	4
TAP	83	0	3
TAP	83	0	4
HLD	83	192	0	96
HLD	83	192	2	96
TAP	84	0	3
TAP	84	0	4
HLD	84	192	5	96
HLD	84	192	7	96
TAP	85	0	3
TAP	85	0	4
HLD	85	192	1	96
HLD	85	192	2	96
TAP	86	0	3
TAP	86	0	4
HLD	86	192	5	96
HLD	86	192	6	96
HLD	87	0	3	96
HLD	87	0	4	96
HLD	87	192	4	96
HLD	87	192	6	96
HLD	88	0	3	96
HLD	88	0	4	96
HLD	88	192	1	96
HLD	88	192	3	96
TAP	89	0	3
TAP	89	0	4
TAP	89	96	2
TAP	89	192	3
TAP	89	192	4
TAP	89	288	5
TAP	90	0	3
TAP	90	0	4
TAP	90	96	1
TAP	90	192	3
TAP	90	192	4
TAP	90	288	6
HLD	91	0	0	96
HLD	91	0	7	96
TAP	91	192	0
TAP	91	192	7
BRK	91	288	1
BRK	91	288	6
TAP	92	0	3
TAP	92	0	4
TAP	92	96	2
TAP	92	144	3
TAP	92	192	1
TAP	92	288	6
TAP	92	288	7
TAP	93	0	3
TAP	93	0	4
TAP	93	96	5
TAP	93	144	4
TAP	93	192	6
TAP	93	288	0
TAP	93	288	1
TAP	94	0	3
TAP	94	0	4
TAP	94	96	2
TAP	94	144	3
TAP	94	192	1
TAP	94	288	5
TAP	94	336	4
TAP	95	0	6
TAP	95	96	0
TAP	95	96	1
TAP	95	192	7
TAP	95	240	7
TAP	95	288	0
HLD	96	0	3	96
STR	96	0	4
SI_	96	0	4	96	48	7
STR	96	192	0
SI_	96	192	0	96	48	4
TAP	96	192	1
TAP	97	0	3
TAP	97	0	5
TAP	97	96	0
TAP	97	96	7
TAP	97	192	2
TAP	97	192	4
TAP	97	288	0
TAP	97	288	7
TAP	98	0	4
HLD	98	0	6	96
TAP	98	48	4
TAP	98	96	4
HLD	98	192	1	96
TAP	98	192	3
TAP	98	240	3
TAP	98	288	3
BRK	99	0	4
BRK	99	96	0
BRK	99	96	1
BRK	99	192	6
BRK	99	192	7
BRK	99	288	0
BRK	99	288	7
TAP	100	0	2
TAP	100	0	4
TAP	100	96	2
TAP	100	96	5
TAP	100	192	2
TAP	100	192	6
TAP	100	288	2
TAP	100	288	7
TAP	101	0	1
TAP	101	48	1
TAP	101	96	3
TAP	101	192	6
TAP	101	240	6
TAP	101	288	4
TAP	102	0	2
TAP	102	0	5
TAP	102	96	1
TAP	102	96	5
TAP	102	192	0
TAP	102	192	5
TAP	102	288	5
TAP	102	288	7
TAP	103	0	6
TAP	103	48	6
TAP	103	96	4
TAP	103	192	1
TAP	103	240	1
TAP	103	288	3
STR	104	0	3
SCR	104	0	3	96	96	6
HLD	104	0	4	192
TAP	104	288	0
TAP	104	288	6
HLD	105	0	3	192
STR	105	0	4
SCL	105	0	4	96	96	1
TAP	105	288	1
TAP	105	288	7
STR	106	0	0
SUL	106	0	0	96	192	3
STR	106	0	7
SUR	106	0	7	96	192	4
BRK	107	0	0
BRK	107	0	7
BRK	107	96	4
BRK	107	96	5
BRK	107	192	0
BRK	107	192	7
BRK	107	288	2
BRK	107	288	3
TAP	108	0	0
TAP	108	0	7
TAP	108	96	6
TAP	108	144	7
TAP	108	192	4
TAP	108	288	1
TAP	108	336	0
TAP	109	0	3
TAP	109	96	6
TAP	109	144	7
TAP	109	192	4
TAP	109	288	2
TAP	109	288	3
TAP	110	0	3
TAP	110	0	4
TAP	110	96	2
TAP	110	144	3
TAP	110	192	0
TAP	110	288	5
TAP	110	336	4
TAP	111	0	7
TAP	111	96	2
TAP	111	144	3
TAP	111	192	0
TAP	111	288	4
TAP	111	288	5
TAP	112	0	4
STR	112	0	6
SI_	112	0	6	96	48	0
STR	112	192	1
SI_	112	192	1	96	48	5
TAP	112	192	3
TAP	113	0	4
TAP	113	0	6
TAP	113	96	0
TAP	113	96	7
TAP	113	192	1
TAP	113	192	3
TAP	113	288	0
TAP	113	288	7
STR	114	0	4
SI_	114	0	4	96	48	1
STR	114	0	5
SI_	114	0	5	96	48	0
STR	114	192	2
SI_	114	192	2	96	48	7
STR	114	192	3
SI_	114	192	3	96	48	6
TAP	115	0	0
TAP	115	0	5
BRK	115	96	3
BRK	115	96	4
BRK	115	192	6
BRK	115	192	7
BRK	115	288	0
BRK	115	288	1
TAP	116	0	4
TAP	116	0	5
TAP	116	96	4
TAP	116	96	6
TAP	116	192	2
TAP	116	192	3
TAP	116	288	1
TAP	116	288	3
TAP	117	0	0
TAP	117	48	7
TAP	117	96	0
TAP	117	144	6
TAP	117	192	0
TAP	117	240	5
BRK	117	288	0
TAP	118	0	6
TAP	118	0	7
TAP	118	96	5
TAP	118	96	7
TAP	118	192	0
TAP	118	192	1
TAP	118	288	0
TAP	118	288	2
TAP	119	0	3
TAP	119	48	4
TAP	119	96	3
TAP	119	144	5
TAP	119	192	3
TAP	119	240	6
BRK	119	288	3
HLD	120	0	3	192
STR	120	0	4
SUR	120	0	4	96	96	1
TAP	120	288	0
TAP	120	288	2
STR	121	0	3
SUL	121	0	3	96	96	6
HLD	121	0	4	192
TAP	121	288	5
TAP	121	288	7
STR	122	0	0
SLL	122	0	0	96	192	4
STR	122	0	7
SLR	122	0	7	96	192	3
BRK	123	0	2
BRK	123	0	5
BRK	123	96	6
BRK	123	96	7
BRK	123	192	3
BRK	123	192	4
BRK	123	288	0
BRK	123	288	1
TAP	124	0	3
TAP	124	0	5
TAP	124	96	2
TAP	124	96	5
TAP	124	192	1
TAP	124	192	5
TAP	124	288	0
TAP	124	288	5
TAP	125	0	0
TAP	125	0	7
TAP	125	96	1
TAP	125	96	7
TAP	125	192	2
TAP	125	192	7
TAP	125	288	3
TAP	125	288	7
HLD	126	0	4	96
TAP	126	0	5
TAP	126	48	5
TAP	126	96	5
TAP	126	192	2
HLD	126	192	3	96
TAP	126	240	2
TAP	126	288	2
TAP	127	0	5
TAP	127	0	6
TAP	127	48	5
TAP	127	48	6
TAP	127	96	5
TAP	127	96	6
TAP	127	192	1
TAP	127	192	2
TAP	127	240	1
TAP	127	240	2
TAP	127	288	1
TAP	127	288	2
HLD	128	0	0	768
BRK	128	0	7
HLD	130	0	7	576
TAP	132	0	1
TAP	132	0	6

T_REC_TAP	472
T_REC_BRK	66
T_REC_XTP	0
T_REC_HLD	85
T_REC_XHO	0
T_REC_STR	37
T_REC_BST	2
T_REC_XST	0
T_REC_TTP	0
T_REC_THO	0
T_REC_SLD	39
T_REC_ALL	701
T_NUM_TAP	509
T_NUM_BRK	68
T_NUM_HLD	85
T_NUM_SLD	39
T_NUM_ALL	701
T_JUDGE_TAP	577
T_JUDGE_HLD	269
T_JUDGE_SLD	39
T_JUDGE_ALL	885
TTM_EACHPAIRS	230
TTM_SCR_TAP	254500
TTM_SCR_BRK	176800
TTM_SCR_HLD	85000
TTM_SCR_SLD	58500
TTM_SCR_ALL	574800
TTM_SCR_S	551000
TTM_SCR_SS	568000
TTM_RAT_ACV	10119

