VERSION	0.00.00	1.03.00
FES_MODE	0
BPM_DEF	234.550	234.550	234.550	234.550
MET_DEF	4	4
RESOLUTION	384
CLK_DEF	384
COMPATIBLE_CODE	MA2

BPM	0	0	234.550

HLD	2	0	4	192
HLD	3	0	3	192
HLD	4	0	4	192
HLD	4	0	5	192
HLD	5	0	2	192
HLD	5	0	3	192
HLD	6	0	4	192
HLD	6	0	6	192
HLD	7	0	1	192
HLD	7	0	3	192
TAP	8	0	4
TAP	8	0	5
TAP	8	192	2
TAP	8	192	3
TAP	9	0	3
TAP	9	0	4
TAP	9	96	3
TAP	9	96	4
TAP	9	192	2
TAP	9	192	5
TAP	10	0	1
TAP	10	96	1
TAP	10	192	2
TAP	10	288	2
TAP	11	0	3
TAP	11	96	3
TAP	11	192	4
TAP	11	192	5
TAP	12	0	6
TAP	12	96	6
TAP	12	192	5
TAP	12	288	5
TAP	13	0	4
TAP	13	96	4
TAP	13	192	2
TAP	13	192	3
TAP	14	0	2
TAP	14	96	2
TAP	14	192	4
TAP	14	288	4
TAP	15	0	3
TAP	15	96	3
TAP	15	192	4
TAP	15	192	5
TAP	16	0	6
TAP	16	96	6
TAP	16	192	0
TAP	16	288	0
TAP	17	0	7
TAP	17	96	7
TAP	17	192	1
TAP	17	288	1
BST	18	0	0
SCR	18	0	0	96	480	3
STR	20	0	4
SCR	20	0	4	96	480	7
TAP	22	0	0
TAP	22	192	0
TAP	23	0	1
TAP	23	192	1
TAP	24	0	2
TAP	24	192	2
TAP	25	0	3
TAP	25	0	4
HLD	26	0	4	192
TAP	26	192	3
HLD	27	0	3	192
TAP	27	192	4
HLD	28	0	5	192
TAP	28	192	4
HLD	29	0	2	192
TAP	29	192	3
HLD	30	0	4	192
HLD	30	0	5	192
HLD	31	0	2	192
HLD	31	0	3	192
HLD	32	0	3	192
HLD	32	0	4	192
TAP	33	0	3
TAP	33	0	4
TAP	33	192	2
TAP	33	192	5
TAP	34	0	0
TAP	34	0	1
TAP	34	192	6
TAP	34	192	7
TAP	35	0	0
TAP	35	0	7
TAP	35	192	1
TAP	35	192	6
TAP	36	0	7
TAP	36	96	7
TAP	36	192	0
TAP	36	288	0
TAP	37	0	1
TAP	37	96	1
TAP	37	192	0
TAP	37	192	2
TAP	38	0	0
TAP	38	96	0
TAP	38	192	7
TAP	38	288	7
TAP	39	0	6
TAP	39	96	6
TAP	39	192	5
TAP	39	192	7
TAP	40	0	4
TAP	40	96	4
TAP	40	192	3
TAP	40	288	3
TAP	41	0	2
TAP	41	96	2
TAP	41	192	1
TAP	41	192	3
TAP	42	0	3
TAP	42	96	3
TAP	42	192	4
TAP	42	288	4
TAP	43	0	5
TAP	43	96	5
TAP	43	192	4
TAP	43	192	6
TAP	44	0	7
TAP	44	96	7
TAP	44	192	6
TAP	44	288	6
TAP	45	0	4
TAP	45	0	5
TAP	45	96	4
TAP	45	96	5
TAP	45	192	3
TAP	45	192	6
TAP	46	0	0
TAP	46	96	0
TAP	46	192	1
TAP	46	288	1
TAP	47	0	2
TAP	47	0	3
TAP	47	96	2
TAP	47	96	3
TAP	47	192	1
TAP	47	192	4
TAP	48	0	4
TAP	48	96	4
TAP	48	192	5
TAP	48	288	5
TAP	49	0	6
TAP	49	0	7
TAP	49	96	6
TAP	49	96	7
TAP	49	192	0
TAP	49	192	5
TAP	50	0	3
TAP	50	96	3
TAP	50	192	2
TAP	50	288	2
TAP	51	0	0
TAP	51	0	1
TAP	51	192	2
TAP	51	192	7
TAP	52	0	6
TAP	52	96	6
TAP	52	192	6
TAP	52	192	7
TAP	52	288	6
TAP	52	288	7
TAP	53	0	1
TAP	53	96	1
TAP	53	192	0
TAP	53	192	1
TAP	53	288	0
TAP	53	288	1
TAP	54	0	7
TAP	54	96	7
TAP	54	192	0
TAP	54	192	7
STR	54	288	0
SI_	54	288	0	96	240	3
STR	54	288	7
SI_	54	288	7	96	240	4
TAP	56	0	5
TAP	56	96	5
TAP	56	192	4
TAP	56	192	5
TAP	56	288	4
TAP	56	288	5
TAP	57	0	2
TAP	57	96	2
TAP	57	192	2
TAP	57	192	3
TAP	57	288	2
TAP	57	288	3
TAP	58	0	4
TAP	58	96	4
TAP	58	192	3
TAP	58	192	4
STR	58	288	3
SI_	58	288	3	96	240	0
STR	58	288	4
SI_	58	288	4	96	240	7
TAP	60	0	1
TAP	60	96	1
TAP	60	192	0
TAP	60	288	0
TAP	61	0	7
TAP	61	96	6
TAP	61	192	0
TAP	61	192	5
TAP	62	0	6
TAP	62	96	6
TAP	62	192	7
TAP	62	288	7
TAP	63	0	0
TAP	63	96	1
TAP	63	192	2
TAP	63	192	7
TAP	64	0	2
TAP	64	96	2
TAP	64	192	1
TAP	64	192	3
TAP	65	0	5
TAP	65	96	5
TAP	65	192	4
TAP	65	192	6
TAP	66	0	2
TAP	66	96	3
TAP	66	192	5
TAP	66	288	4
TAP	67	0	3
TAP	67	96	3
TAP	67	192	2
TAP	67	192	4
HLD	68	0	2	192
HLD	68	192	1	192
STR	69	0	0
SI_	69	0	0	96	192	3
HLD	70	0	5	192
HLD	70	192	6	192
STR	71	0	7
SI_	71	0	7	96	192	4
STR	72	0	3
SI_	72	0	3	96	192	0
STR	73	0	4
SI_	73	0	4	96	192	7
TAP	74	0	3
STR	74	192	3
SI_	74	192	3	96	240	0
STR	74	192	4
SI_	74	192	4	96	240	7
TAP	76	0	5
TAP	76	192	6
TAP	77	0	7
TAP	77	192	0
TAP	78	0	1
TAP	78	192	2
TAP	79	0	3
TAP	79	0	4
TAP	80	0	2
TAP	80	192	1
TAP	81	0	0
TAP	81	192	7
TAP	82	0	6
TAP	82	192	5
HLD	83	0	4	192
HLD	83	0	5	192
HLD	84	0	2	192
HLD	84	0	3	192
HLD	85	0	4	192
HLD	85	0	6	192
HLD	86	0	1	192
HLD	86	0	3	192
HLD	87	0	5	192
HLD	87	0	7	192
HLD	88	0	0	192
HLD	88	0	2	192
HLD	89	0	6	192
HLD	89	0	7	192
HLD	90	0	0	192
HLD	90	0	1	192
HLD	91	0	0	192
HLD	91	0	7	192
TAP	92	0	1
TAP	92	96	1
TAP	92	192	0
TAP	92	192	1
TAP	92	288	0
TAP	92	288	1
TAP	93	0	6
TAP	93	96	6
TAP	93	192	6
TAP	93	192	7
TAP	93	288	6
TAP	93	288	7
TAP	94	0	0
TAP	94	96	0
TAP	94	192	0
TAP	94	192	7
TAP	94	288	0
TAP	94	288	7
TAP	95	0	6
TAP	95	96	4
TAP	95	96	5
TAP	95	192	3
TAP	95	192	6
TAP	96	0	2
TAP	96	96	2
TAP	96	192	2
TAP	96	192	3
TAP	96	288	2
TAP	96	288	3
TAP	97	0	5
TAP	97	96	5
TAP	97	192	4
TAP	97	192	5
TAP	97	288	4
TAP	97	288	5
TAP	98	0	3
TAP	98	96	3
TAP	98	192	3
TAP	98	192	4
TAP	98	288	3
TAP	98	288	4
TAP	99	0	2
TAP	99	96	0
TAP	99	96	1
TAP	99	192	2
TAP	99	192	7
TAP	100	0	6
TAP	100	96	6
TAP	100	192	7
TAP	100	288	7
TAP	101	0	0
TAP	101	96	1
TAP	101	192	2
TAP	101	192	7
TAP	102	0	1
TAP	102	96	1
TAP	102	192	0
TAP	102	288	0
TAP	103	0	7
TAP	103	96	6
TAP	103	192	0
TAP	103	192	5
TAP	104	0	5
TAP	104	96	5
TAP	104	192	4
TAP	104	192	6
TAP	105	0	2
TAP	105	96	2
TAP	105	192	1
TAP	105	192	3
TAP	106	0	5
TAP	106	96	4
TAP	106	192	2
TAP	106	288	3
TAP	107	0	4
TAP	107	96	4
TAP	107	96	5
TAP	107	192	3
TAP	107	192	6
TAP	108	0	1
TAP	108	96	0
TAP	108	192	6
TAP	108	192	7
TAP	108	288	6
TAP	108	288	7
TAP	109	0	6
TAP	109	96	7
TAP	109	192	0
TAP	109	192	1
TAP	109	288	0
TAP	109	288	1
TAP	110	0	1
TAP	110	96	0
TAP	110	192	6
TAP	110	192	7
TAP	110	288	6
TAP	110	288	7
TAP	111	0	5
TAP	111	96	4
TAP	111	192	3
TAP	111	288	2
TAP	112	0	2
TAP	112	96	3
TAP	112	192	4
TAP	112	192	5
TAP	112	288	4
TAP	112	288	5
TAP	113	0	5
TAP	113	96	4
TAP	113	192	2
TAP	113	192	3
TAP	113	288	2
TAP	113	288	3
HLD	114	0	4	96
HLD	114	0	5	96
HLD	114	192	2	96
HLD	114	192	3	96
STR	115	0	3
SI_	115	0	3	96	192	0
STR	115	0	4
SI_	115	0	4	96	192	7
TAP	116	0	0
TAP	116	0	7
TAP	116	96	1
TAP	116	192	2
TAP	116	192	3
TAP	116	288	4
TAP	117	0	5
TAP	117	96	4
TAP	117	192	3
TAP	117	192	6
TAP	118	0	0
TAP	118	0	7
TAP	118	96	6
TAP	118	192	4
TAP	118	192	5
TAP	118	288	3
TAP	119	0	2
TAP	119	96	3
TAP	119	192	1
TAP	119	192	4
TAP	120	0	5
TAP	120	96	5
TAP	120	192	4
TAP	120	192	6
TAP	120	288	3
TAP	121	0	2
TAP	121	96	2
TAP	121	192	1
TAP	121	192	3
TAP	121	288	4
TAP	122	0	5
TAP	122	96	4
TAP	122	96	5
TAP	122	192	2
TAP	122	288	2
TAP	122	288	3
TAP	123	0	4
TAP	123	96	3
TAP	123	96	4
BRK	123	192	2
BRK	123	192	5
TAP	124	0	1
TAP	124	96	0
TAP	124	96	1
TAP	124	192	6
TAP	124	288	6
TAP	124	288	7
TAP	125	0	5
TAP	125	96	4
TAP	125	96	5
TAP	125	192	2
TAP	125	288	2
TAP	125	288	3
TAP	126	0	5
TAP	126	96	4
TAP	126	96	6
TAP	126	192	2
TAP	126	288	1
TAP	126	288	3
TAP	127	0	3
TAP	127	0	4
TAP	127	96	2
TAP	127	96	5
TAP	127	192	1
TAP	127	192	6
TAP	127	288	0
TAP	127	288	7
BRK	128	0	1
BRK	128	0	6

T_REC_TAP	393
T_REC_BRK	4
T_REC_XTP	0
T_REC_HLD	46
T_REC_XHO	0
T_REC_STR	13
T_REC_BST	1
T_REC_XST	0
T_REC_TTP	0
T_REC_THO	0
T_REC_SLD	14
T_REC_ALL	471
T_NUM_TAP	406
T_NUM_BRK	5
T_NUM_HLD	46
T_NUM_SLD	14
T_NUM_ALL	471
T_JUDGE_TAP	411
T_JUDGE_HLD	176
T_JUDGE_SLD	14
T_JUDGE_ALL	601
TTM_EACHPAIRS	123
TTM_SCR_TAP	203000
TTM_SCR_BRK	13000
TTM_SCR_HLD	46000
TTM_SCR_SLD	21000
TTM_SCR_ALL	283000
TTM_SCR_S	274050
TTM_SCR_SS	282500
TTM_RAT_ACV	10017

