VERSION	0.00.00	1.03.00
FES_MODE	0
BPM_DEF	234.550	234.550	234.550	234.550
MET_DEF	4	4
RESOLUTION	384
CLK_DEF	384
COMPATIBLE_CODE	MA2

BPM	0	0	234.550

HLD	2	0	0	384
HLD	4	0	7	384
HLD	6	0	0	192
HLD	7	0	7	192
TAP	8	0	0
TAP	8	192	7
TAP	9	0	0
TAP	9	192	1
TAP	9	192	6
HLD	10	0	2	192
TAP	11	0	2
TAP	11	96	2
TAP	11	192	2
HLD	12	0	3	192
TAP	13	0	3
TAP	13	96	3
TAP	13	192	3
HLD	14	0	4	192
TAP	15	0	4
TAP	15	96	4
TAP	15	192	4
TAP	16	0	5
TAP	16	192	5
TAP	17	0	6
TAP	17	192	6
STR	18	0	7
SI_	18	0	7	96	288	3
TAP	20	0	0
TAP	20	192	0
TAP	21	0	7
TAP	21	192	7
STR	22	0	0
SI_	22	0	0	96	288	4
TAP	24	0	7
TAP	24	192	0
TAP	25	0	0
TAP	25	0	7
TAP	26	0	7
TAP	26	192	7
TAP	27	0	0
TAP	27	0	6
TAP	28	0	0
TAP	28	192	0
TAP	29	0	1
TAP	29	0	7
TAP	30	0	0
TAP	30	0	7
TAP	30	192	0
TAP	30	192	7
TAP	31	0	1
TAP	31	0	6
TAP	31	192	1
TAP	31	192	6
TAP	32	0	2
TAP	32	0	5
TAP	32	192	2
TAP	32	192	5
TAP	33	0	3
TAP	33	0	4
TAP	33	192	3
TAP	33	192	4
TAP	34	0	3
TAP	34	96	3
TAP	34	192	3
TAP	35	0	4
TAP	35	96	4
TAP	35	192	4
TAP	36	0	3
TAP	36	96	3
TAP	36	192	3
TAP	37	0	2
TAP	37	96	2
TAP	37	192	2
TAP	38	0	1
TAP	38	96	1
TAP	38	192	1
TAP	39	0	0
TAP	39	96	0
TAP	39	192	0
TAP	40	0	7
TAP	40	96	7
TAP	40	192	7
TAP	41	0	6
TAP	41	96	6
TAP	41	192	6
TAP	42	0	5
TAP	42	96	5
TAP	42	192	5
TAP	43	0	3
TAP	43	0	4
TAP	43	96	3
TAP	43	96	4
TAP	43	192	3
TAP	43	192	4
TAP	44	0	4
TAP	44	96	4
TAP	44	192	4
TAP	45	0	5
TAP	45	96	5
TAP	45	192	5
TAP	46	0	6
TAP	46	96	6
TAP	46	192	6
TAP	47	0	7
TAP	47	96	7
TAP	47	192	7
TAP	48	0	0
TAP	48	96	0
TAP	48	192	0
TAP	49	0	1
TAP	49	96	1
TAP	49	192	1
TAP	50	0	2
TAP	50	96	2
TAP	50	192	2
TAP	51	0	3
TAP	51	0	4
TAP	51	96	3
TAP	51	96	4
TAP	51	192	3
TAP	51	192	4
TAP	52	0	4
TAP	52	96	4
TAP	52	192	5
TAP	52	288	5
TAP	53	0	6
TAP	53	96	6
TAP	53	192	0
TAP	53	192	7
TAP	54	0	0
TAP	54	96	0
TAP	54	192	1
TAP	54	288	1
TAP	55	0	2
TAP	55	96	2
TAP	55	192	3
TAP	55	192	4
HLD	56	0	4	192
HLD	57	0	3	192
TAP	58	0	4
TAP	58	96	4
TAP	58	192	3
TAP	58	288	3
HLD	59	0	4	192
TAP	60	0	3
TAP	60	96	3
TAP	60	192	2
TAP	60	288	2
TAP	61	0	1
TAP	61	96	1
TAP	61	192	0
TAP	61	192	7
TAP	62	0	7
TAP	62	96	7
TAP	62	192	6
TAP	62	288	6
TAP	63	0	5
TAP	63	96	5
TAP	63	192	3
TAP	63	192	4
HLD	64	0	2	192
HLD	64	0	3	192
HLD	65	0	3	192
HLD	65	0	4	192
HLD	66	0	4	192
HLD	66	0	5	192
TAP	67	0	3
TAP	67	96	3
TAP	67	192	4
TAP	67	288	4
STR	68	0	3
SI_	68	0	3	96	288	0
STR	70	0	4
SI_	70	0	4	96	288	7
STR	72	0	0
SI_	72	0	0	96	288	3
STR	74	0	7
SI_	74	0	7	96	288	4
TAP	76	0	3
TAP	76	192	3
TAP	76	192	4
TAP	77	0	3
TAP	77	192	3
TAP	77	192	4
TAP	78	0	4
TAP	78	192	3
TAP	78	192	4
TAP	79	0	4
TAP	79	192	3
TAP	79	192	4
TAP	80	0	3
TAP	80	192	2
TAP	80	192	4
TAP	81	0	4
TAP	81	192	3
TAP	81	192	5
TAP	82	0	3
TAP	82	0	4
TAP	82	192	2
TAP	82	192	5
TAP	83	0	3
TAP	83	0	4
TAP	84	0	4
TAP	84	0	5
TAP	85	0	5
TAP	85	0	6
TAP	86	0	6
TAP	86	0	7
TAP	87	0	0
TAP	87	0	7
TAP	87	192	0
TAP	87	192	7
TAP	88	0	0
TAP	88	0	1
TAP	88	192	0
TAP	88	192	1
TAP	89	0	1
TAP	89	0	2
TAP	89	192	1
TAP	89	192	2
TAP	90	0	2
TAP	90	0	3
TAP	90	192	2
TAP	90	192	3
BRK	91	0	3
BRK	91	0	4
TAP	92	0	3
TAP	92	96	3
TAP	92	192	2
TAP	92	288	2
TAP	93	0	1
TAP	93	96	1
TAP	93	192	0
TAP	93	288	0
TAP	94	0	7
TAP	94	96	7
TAP	94	192	6
TAP	94	288	6
TAP	95	0	5
TAP	95	96	5
TAP	95	192	3
TAP	95	192	4
TAP	96	0	4
TAP	96	96	4
TAP	96	192	5
TAP	96	288	5
TAP	97	0	6
TAP	97	96	6
TAP	97	192	7
TAP	97	288	7
TAP	98	0	0
TAP	98	96	0
TAP	98	192	1
TAP	98	288	1
HLD	99	0	2	192
HLD	99	0	3	192
TAP	100	0	2
TAP	100	96	2
TAP	100	192	3
TAP	100	288	3
TAP	101	0	2
TAP	101	96	3
TAP	101	192	2
TAP	102	0	5
TAP	102	96	5
TAP	102	192	4
TAP	102	288	4
TAP	103	0	5
TAP	103	96	4
TAP	103	192	5
HLD	104	0	6	192
HLD	104	0	7	192
HLD	105	0	0	192
HLD	105	0	1	192
HLD	106	0	6	192
HLD	106	0	7	192
TAP	107	0	4
TAP	107	0	5
TAP	107	96	4
TAP	107	96	5
TAP	107	192	4
TAP	107	192	5
TAP	108	0	4
TAP	108	96	4
TAP	108	192	5
TAP	108	288	5
TAP	109	0	6
TAP	109	96	6
TAP	109	192	7
TAP	109	288	7
TAP	110	0	0
TAP	110	96	0
TAP	110	192	1
TAP	110	288	1
TAP	111	0	2
TAP	111	96	2
TAP	111	192	3
TAP	111	192	4
TAP	112	0	3
TAP	112	96	3
TAP	112	192	2
TAP	112	288	2
TAP	113	0	1
TAP	113	96	1
TAP	113	192	0
TAP	113	288	0
TAP	114	0	7
TAP	114	96	7
TAP	114	192	6
TAP	114	288	6
HLD	115	0	4	192
HLD	115	0	5	192
TAP	116	0	5
TAP	116	96	5
TAP	116	192	4
TAP	116	288	4
TAP	117	0	5
TAP	117	96	4
TAP	117	192	5
TAP	118	0	2
TAP	118	96	2
TAP	118	192	3
TAP	118	288	3
TAP	119	0	2
TAP	119	96	3
TAP	119	192	2
HLD	120	0	0	192
HLD	120	0	1	192
HLD	121	0	6	192
HLD	121	0	7	192
HLD	122	0	0	192
HLD	122	0	1	192
TAP	123	0	2
TAP	123	0	3
TAP	123	96	2
TAP	123	96	3
TAP	123	192	2
TAP	123	192	3
TAP	124	0	4
TAP	124	192	5
TAP	125	0	6
TAP	125	192	7
TAP	126	0	0
TAP	126	96	0
TAP	126	192	7
TAP	126	288	7
TAP	127	0	0
TAP	127	48	0
TAP	127	96	0
TAP	127	192	7
TAP	127	240	7
TAP	127	288	7
BRK	128	0	1
BRK	128	0	6

T_REC_TAP	306
T_REC_BRK	4
T_REC_XTP	0
T_REC_HLD	32
T_REC_XHO	0
T_REC_STR	6
T_REC_BST	0
T_REC_XST	0
T_REC_TTP	0
T_REC_THO	0
T_REC_SLD	6
T_REC_ALL	354
T_NUM_TAP	312
T_NUM_BRK	4
T_NUM_HLD	32
T_NUM_SLD	6
T_NUM_ALL	354
T_JUDGE_TAP	316
T_JUDGE_HLD	136
T_JUDGE_SLD	6
T_JUDGE_ALL	458
TTM_EACHPAIRS	63
TTM_SCR_TAP	156000
TTM_SCR_BRK	10400
TTM_SCR_HLD	32000
TTM_SCR_SLD	9000
TTM_SCR_ALL	207400
TTM_SCR_S	200800
TTM_SCR_SS	207000
TTM_RAT_ACV	10019

