VERSION	0.00.00	1.03.00
FES_MODE	0
BPM_DEF	160.000	160.000	160.000	160.000
MET_DEF	4	4
RESOLUTION	384
CLK_DEF	384
COMPATIBLE_CODE	MA2

BPM	0	0	160.000
MET	0	0	4	4
MET	50	0	4	3
MET	61	96	4	4
MET	62	96	4	3
MET	65	96	4	4

STR	2	0	0
SI_	2	0	0	96	192	4
HLD	2	0	6	384
STR	3	0	4
SI_	3	0	4	96	192	1
HLD	3	288	7	384
STR	4	0	6
SCL	4	0	6	96	192	3
HLD	5	0	1	96
HLD	5	0	3	96
TAP	5	192	2
TAP	5	192	6
TAP	5	288	0
TAP	5	288	4
TAP	6	0	4
HLD	6	0	5	1056
TAP	6	96	3
TAP	6	288	2
TAP	7	96	1
TAP	7	288	0
TAP	8	96	7
TAP	8	288	6
TAP	9	0	0
BRK	9	0	2
BRK	9	72	1
TAP	9	72	5
TAP	9	144	3
BRK	9	144	7
TAP	9	216	0
BRK	9	216	4
TAP	9	288	2
TAP	9	288	5
TAP	9	336	3
TAP	9	336	4
TAP	10	0	0
HLD	10	0	7	72
TAP	10	72	5
TAP	10	96	7
TAP	10	144	4
TAP	10	192	3
TAP	10	192	7
TAP	10	240	0
TAP	10	288	2
TAP	10	312	3
TAP	10	336	1
HLD	11	0	0	72
TAP	11	0	7
TAP	11	72	2
TAP	11	96	0
TAP	11	144	3
TAP	11	192	0
TAP	11	192	4
TAP	11	240	7
TAP	11	288	5
TAP	11	312	4
TAP	11	336	6
TAP	12	0	0
HLD	12	0	7	72
TAP	12	72	5
TAP	12	96	7
TAP	12	144	4
TAP	12	192	3
TAP	12	192	7
TAP	12	240	0
TAP	12	288	2
TAP	12	312	3
TAP	12	336	1
HLD	13	0	0	72
TAP	13	0	7
TAP	13	72	2
TAP	13	96	0
TAP	13	144	3
TAP	13	192	6
TAP	13	216	7
TAP	13	240	5
TAP	13	288	2
TAP	13	288	6
TAP	14	0	0
HLD	14	0	2	72
HLD	14	72	4	72
TAP	14	144	6
HLD	14	192	7	48
HLD	14	240	6	48
HLD	14	288	5	48
HLD	14	336	4	48
HLD	15	0	0	72
HLD	15	72	2	72
TAP	15	144	4
STR	15	192	0
SI_	15	192	0	96	48	5
STR	15	192	6
SI_	15	192	6	96	48	3
TAP	15	288	0
TAP	15	288	6
TAP	16	0	1
HLD	16	0	3	96
TAP	16	96	2
TAP	16	120	3
TAP	16	144	2
HLD	16	192	4	96
TAP	16	192	6
TAP	16	288	5
TAP	16	312	4
TAP	16	336	5
TAP	17	0	1
TAP	17	24	0
TAP	17	24	1
TAP	17	72	6
TAP	17	96	6
TAP	17	96	7
TAP	17	144	2
TAP	17	168	1
TAP	17	168	3
TAP	17	216	5
TAP	17	240	4
TAP	17	240	6
TAP	17	288	0
TAP	17	312	7
TAP	17	336	1
TAP	17	360	6
STR	18	0	0
SI_	18	0	0	96	48	4
STR	18	0	7
SI_	18	0	7	96	48	3
BRK	18	96	0
BRK	18	96	7
TAP	18	192	2
TAP	18	192	3
TAP	18	240	2
TAP	18	240	3
TAP	18	288	0
TAP	18	288	5
TAP	19	0	5
TAP	19	24	4
TAP	19	48	5
TAP	19	96	2
TAP	19	120	3
TAP	19	144	2
TAP	19	192	4
TAP	19	192	5
TAP	19	240	4
TAP	19	240	5
TAP	19	288	2
TAP	19	288	7
STR	20	0	2
SI_	20	0	2	96	48	0
TAP	20	24	3
TAP	20	48	2
TAP	20	72	3
TAP	20	96	2
TAP	20	144	7
STR	20	192	5
SI_	20	192	5	96	48	7
TAP	20	216	4
TAP	20	240	5
TAP	20	264	4
TAP	20	288	5
TAP	20	336	0
STR	21	0	2
SI_	21	0	2	96	48	0
TAP	21	24	3
TAP	21	48	2
TAP	21	72	3
TAP	21	96	2
TAP	21	144	7
TAP	21	192	1
TAP	21	192	5
TAP	21	240	1
TAP	21	240	5
TAP	21	288	2
TAP	21	288	6
TAP	21	336	2
TAP	21	336	6
BST	22	0	3
SCL	22	0	3	96	48	0
BST	22	0	7
SCL	22	0	7	96	48	4
TAP	22	96	3
TAP	22	96	7
TAP	22	192	1
TAP	22	216	5
TAP	22	240	1
TAP	22	288	3
TAP	22	288	7
TAP	23	0	6
TAP	23	24	3
TAP	23	48	5
TAP	23	72	2
TAP	23	96	4
TAP	23	120	1
TAP	23	144	5
TAP	23	168	2
TAP	23	192	6
TAP	23	216	3
TAP	23	240	7
TAP	23	288	1
TAP	23	288	4
HLD	23	336	0	48
TAP	24	0	3
TAP	24	24	2
TAP	24	48	3
TAP	24	72	2
HLD	24	96	7	48
TAP	24	144	4
TAP	24	168	5
TAP	24	192	4
TAP	24	216	5
TAP	24	240	0
TAP	24	288	1
TAP	24	288	6
TAP	24	336	3
TAP	24	336	4
TAP	25	0	5
TAP	25	24	4
TAP	25	24	5
TAP	25	72	2
TAP	25	96	2
TAP	25	96	3
TAP	25	144	6
TAP	25	168	4
TAP	25	168	6
TAP	25	216	1
TAP	25	240	1
TAP	25	240	3
TAP	25	288	7
TAP	25	312	0
TAP	25	336	7
TAP	25	360	0
BST	26	0	1
SI_	26	0	1	96	48	4
BST	26	0	6
SI_	26	0	6	96	48	3
BRK	26	96	1
BRK	26	96	6
TAP	26	192	1
TAP	26	216	3
TAP	26	240	1
TAP	26	264	3
TAP	26	288	2
TAP	26	336	6
TAP	26	360	4
TAP	27	0	6
TAP	27	24	4
TAP	27	48	5
STR	27	96	0
SSL	27	96	0	96	144	4
TAP	27	96	4
TAP	27	144	6
TAP	27	168	6
TAP	27	240	3
TAP	27	288	5
TAP	27	336	7
TAP	28	0	1
TAP	28	24	3
TAP	28	48	1
TAP	28	72	3
TAP	28	96	2
TAP	28	144	6
TAP	28	168	4
TAP	28	192	6
TAP	28	216	4
TAP	28	240	5
TAP	28	288	0
TAP	28	288	7
TAP	28	336	1
TAP	28	360	3
TAP	29	0	1
TAP	29	24	3
TAP	29	48	2
TAP	29	96	3
STR	29	96	7
SSR	29	96	7	96	144	3
TAP	29	144	1
TAP	29	168	1
TAP	29	240	4
TAP	29	288	2
TAP	29	336	0
BST	30	0	0
SI_	30	0	0	96	48	4
BST	30	0	5
SI_	30	0	5	96	48	7
BRK	30	96	0
BRK	30	96	5
TAP	30	192	1
TAP	30	216	3
TAP	30	240	1
TAP	30	264	3
TAP	30	288	2
TAP	30	336	6
TAP	30	360	4
TAP	31	0	6
TAP	31	24	4
TAP	31	48	5
STR	31	96	0
SSL	31	96	0	96	144	4
TAP	31	96	4
TAP	31	144	6
TAP	31	168	6
TAP	31	240	3
TAP	31	288	5
TAP	31	336	7
TAP	32	0	6
TAP	32	24	2
TAP	32	48	6
TAP	32	72	2
TAP	32	96	5
TAP	32	120	1
TAP	32	144	5
TAP	32	168	1
TAP	32	192	4
TAP	32	216	0
TAP	32	240	4
TAP	32	264	0
TAP	32	288	4
TAP	32	300	5
TAP	32	312	6
TAP	32	324	7
TAP	32	336	0
TAP	32	348	1
TAP	32	360	2
TAP	32	372	3
STR	33	0	0
SI_	33	0	0	96	96	4
TAP	33	0	4
BST	33	192	0
SF_	33	192	0	96	48	4
BRK	33	288	0
TAP	34	0	2
TAP	34	0	6
TAP	34	48	1
TAP	34	72	0
TAP	34	96	1
TAP	34	144	3
TAP	34	144	4
STR	34	192	2
SI_	34	192	2	96	48	0
STR	34	192	7
SI_	34	192	7	96	48	3
TAP	34	240	1
TAP	34	240	6
TAP	34	288	2
TAP	34	288	7
TAP	35	0	1
TAP	35	0	5
TAP	35	48	6
TAP	35	72	7
TAP	35	96	6
TAP	35	144	3
TAP	35	144	4
STR	35	192	0
SI_	35	192	0	96	48	4
TAP	35	192	5
TAP	35	240	1
TAP	35	288	0
STR	35	288	7
SI_	35	288	7	96	48	3
TAP	35	336	6
STR	36	0	2
SI_	36	0	2	96	48	0
TAP	36	0	7
STR	36	72	0
SI_	36	72	0	96	48	4
TAP	36	144	4
STR	36	192	5
SI_	36	192	5	96	48	7
STR	36	264	7
SI_	36	264	7	96	48	3
TAP	36	336	3
STR	37	0	0
SI_	37	0	0	96	48	4
STR	37	96	0
SCL	37	96	0	96	48	5
SCR	37	96	0	96	48	3
STR	37	192	0
SF_	37	192	0	96	48	4
TAP	37	288	0
TAP	38	0	2
TAP	38	0	6
TAP	38	48	5
TAP	38	72	4
TAP	38	96	5
TAP	38	144	0
TAP	38	144	7
STR	38	192	3
SI_	38	192	3	96	48	7
STR	38	192	6
SI_	38	192	6	96	48	4
TAP	38	240	2
TAP	38	240	5
TAP	38	288	3
TAP	38	288	6
TAP	39	0	1
TAP	39	0	5
TAP	39	48	2
TAP	39	72	3
TAP	39	96	2
TAP	39	144	1
TAP	39	144	4
TAP	39	192	0
STR	39	192	7
SI_	39	192	7	96	48	3
TAP	39	240	6
STR	39	288	0
SI_	39	288	0	96	48	4
TAP	39	288	7
TAP	39	336	1
TAP	40	0	0
STR	40	0	5
SI_	40	0	5	96	48	7
STR	40	72	7
SI_	40	72	7	96	48	3
TAP	40	144	3
STR	40	192	2
SI_	40	192	2	96	48	0
STR	40	264	0
SI_	40	264	0	96	48	4
TAP	40	336	4
STR	41	0	7
SXL	41	0	7	96	96	3
SXR	41	0	7	96	96	3
BRK	41	288	1
BRK	41	288	5
STR	42	0	2
SI_	42	0	2	96	192	7
STR	42	0	6
SI_	42	0	6	96	288	3
STR	43	0	7
SCR	43	0	7	96	192	2
HLD	43	96	6	288
STR	44	0	5
SCL	44	0	5	96	192	2
HLD	45	0	0	96
HLD	45	0	2	96
TAP	45	192	1
TAP	45	192	5
TAP	45	288	3
TAP	45	288	7
HLD	46	0	2	1056
TAP	46	0	3
TAP	46	96	4
TAP	46	288	5
TAP	47	96	6
TAP	47	288	7
TAP	48	96	0
TAP	48	288	1
BRK	49	0	5
TAP	49	0	7
TAP	49	72	2
BRK	49	72	6
BRK	49	144	0
TAP	49	144	4
BRK	49	216	3
TAP	49	216	7
TAP	49	288	0
TAP	49	288	4
TAP	49	312	1
TAP	49	312	5
TAP	49	336	2
TAP	49	336	6
TAP	49	360	3
TAP	49	360	7
STR	50	0	0
SUL	50	0	0	96	48	4
STR	50	0	4
SUL	50	0	4	96	48	0
STR	50	96	0
SCR	50	96	0	96	48	3
STR	50	96	4
SCR	50	96	4	96	48	7
STR	50	192	0
SLL	50	192	0	96	72	3
STR	50	192	4
SLL	50	192	4	96	72	7
STR	51	192	3
SUL	51	192	3	96	48	7
STR	51	192	7
SUL	51	192	7	96	48	3
STR	51	288	3
SCR	51	288	3	96	48	6
STR	51	288	7
SCR	51	288	7	96	48	2
STR	52	0	3
SI_	52	0	3	96	48	7
STR	52	0	7
SI_	52	0	7	96	48	3
BRK	52	192	0
BRK	52	288	0
STR	53	0	3
SCR	53	0	3	96	48	6
STR	53	0	4
SCL	53	0	4	96	48	1
STR	53	96	3
SI_	53	96	3	96	48	7
STR	53	96	4
SI_	53	96	4	96	48	0
STR	53	192	3
SXR	53	192	3	96	144	0
STR	53	192	4
SXL	53	192	4	96	144	7
STR	54	192	0
SUR	54	192	0	96	48	4
STR	54	192	7
SUL	54	192	7	96	48	3
STR	54	288	0
SCL	54	288	0	96	48	5
STR	54	288	7
SCR	54	288	7	96	48	2
STR	55	0	0
SSL	55	0	0	96	48	4
STR	55	0	7
SSR	55	0	7	96	48	3
TAP	55	288	0
TAP	55	288	7
TAP	55	312	1
TAP	55	336	2
TAP	55	360	3
TAP	56	0	4
TAP	56	0	5
TAP	56	72	6
TAP	56	96	6
TAP	56	96	7
TAP	56	192	0
TAP	56	192	7
TAP	56	216	6
TAP	56	240	5
TAP	56	264	4
TAP	56	288	7
TAP	56	312	0
TAP	56	336	1
TAP	56	360	2
TAP	57	0	3
TAP	57	0	4
TAP	57	96	3
TAP	57	120	2
TAP	57	144	1
TAP	57	168	0
TAP	57	192	6
TAP	57	192	7
TAP	57	264	5
TAP	57	288	4
TAP	57	288	5
TAP	58	0	3
TAP	58	24	4
TAP	58	48	3
TAP	58	72	4
TAP	58	96	1
TAP	58	120	0
TAP	58	144	1
TAP	58	168	0
TAP	58	192	3
TAP	58	216	4
TAP	58	240	3
TAP	58	264	4
TAP	58	288	7
TAP	58	312	6
TAP	58	336	7
TAP	58	360	6
HLD	59	0	1	96
TAP	59	72	2
HLD	59	96	2	96
TAP	59	168	3
HLD	59	192	3	96
TAP	59	264	4
HLD	59	288	4	96
TAP	59	360	5
HLD	60	0	5	96
TAP	60	72	6
HLD	60	96	6	72
TAP	60	168	7
TAP	60	192	6
TAP	60	216	0
TAP	60	240	6
TAP	60	264	1
TAP	60	288	6
TAP	60	312	2
TAP	60	336	6
TAP	60	360	3
TAP	61	0	6
TAP	61	24	4
TAP	61	48	6
TAP	61	72	5
BST	61	96	7
SF_	61	96	7	96	48	3
BRK	61	192	7
BST	61	288	0
SF_	61	288	0	96	48	4
BRK	62	0	0
TAP	62	96	3
TAP	62	96	4
TAP	62	120	5
TAP	62	144	6
TAP	62	168	7
TAP	62	192	0
TAP	62	192	1
TAP	62	288	1
TAP	62	312	2
TAP	62	336	3
TAP	62	360	4
TAP	63	0	6
TAP	63	24	5
TAP	63	48	4
TAP	63	72	3
HLD	63	96	0	96
TAP	63	192	7
TAP	63	216	6
TAP	63	240	5
TAP	63	264	4
TAP	63	288	2
TAP	63	288	3
TAP	63	336	6
TAP	63	360	7
TAP	64	0	6
TAP	64	24	0
TAP	64	48	6
TAP	64	72	1
TAP	64	96	6
TAP	64	120	2
TAP	64	144	6
TAP	64	168	3
TAP	64	192	6
TAP	64	216	4
TAP	64	240	6
TAP	64	264	5
TAP	64	288	6
TAP	64	312	1
TAP	64	336	7
TAP	64	360	0
TAP	65	0	6
TAP	65	24	1
TAP	65	48	7
BRK	65	96	2
BRK	65	96	7
TAP	65	144	1
TAP	65	168	0
TAP	65	192	1
TAP	65	216	7
TAP	65	240	1
TAP	65	264	6
TAP	65	288	1
TAP	65	312	5
TAP	65	336	1
TAP	65	360	4
TAP	66	0	1
TAP	66	24	3
TAP	66	48	1
BRK	66	96	0
BRK	66	96	5
TAP	66	144	6
TAP	66	168	7
TAP	66	192	6
TAP	66	216	0
TAP	66	240	6
TAP	66	264	1
TAP	66	288	6
TAP	66	312	2
TAP	66	336	6
TAP	66	360	3
TAP	67	0	6
TAP	67	24	4
TAP	67	48	6
BRK	67	96	0
BRK	67	96	7
TAP	67	144	1
TAP	67	168	3
TAP	67	192	2
TAP	67	240	6
TAP	67	264	4
TAP	67	288	5
TAP	67	336	3
TAP	67	360	4
TAP	68	0	2
TAP	68	24	5
TAP	68	48	1
TAP	68	72	6
TAP	68	96	0
TAP	68	96	7
TAP	68	128	1
TAP	68	128	6
TAP	68	160	2
TAP	68	160	5
TAP	68	192	3
TAP	68	192	4
TAP	68	224	2
TAP	68	224	5
TAP	68	256	1
TAP	68	256	6
STR	68	288	0
SI_	68	288	0	96	48	4
STR	68	288	7
SI_	68	288	7	96	48	3
BRK	69	0	0
BRK	69	0	7
TAP	69	96	1
TAP	69	96	5
TAP	69	144	6
TAP	69	168	7
TAP	69	192	6
TAP	69	240	2
TAP	69	240	4
TAP	69	288	3
STR	69	288	5
SI_	69	288	5	96	48	0
STR	69	336	1
SI_	69	336	1	96	48	4
TAP	69	336	7
TAP	70	0	3
TAP	70	0	5
TAP	70	48	1
TAP	70	96	6
TAP	70	144	1
TAP	70	168	0
TAP	70	192	1
TAP	70	240	3
TAP	70	240	4
TAP	70	288	0
STR	70	288	7
SI_	70	288	7	96	48	3
TAP	70	336	5
STR	71	0	0
SI_	71	0	0	96	48	4
TAP	71	0	7
TAP	71	48	2
TAP	71	96	0
STR	71	96	5
SLL	71	96	5	96	96	7
TAP	71	168	3
TAP	71	240	7
STR	71	288	2
SLR	71	288	2	96	96	0
TAP	71	360	4
TAP	72	48	0
STR	72	96	7
SI_	72	96	7	96	48	4
SCL	72	96	7	96	48	4
STR	72	192	7
SI_	72	192	7	96	48	2
SCR	72	192	7	96	48	2
STR	72	288	7
SF_	72	288	7	96	48	3
TAP	73	0	7
TAP	73	96	1
TAP	73	96	5
TAP	73	144	2
TAP	73	168	3
TAP	73	192	2
TAP	73	240	0
TAP	73	240	7
STR	73	288	2
SI_	73	288	2	96	48	7
TAP	73	288	4
TAP	73	336	0
STR	73	336	6
SI_	73	336	6	96	48	3
TAP	74	0	2
TAP	74	0	4
TAP	74	48	6
TAP	74	96	2
TAP	74	144	5
TAP	74	168	4
TAP	74	192	5
TAP	74	240	3
TAP	74	240	6
STR	74	288	0
SI_	74	288	0	96	48	4
TAP	74	288	7
TAP	74	336	2
TAP	75	0	0
STR	75	0	7
SI_	75	0	7	96	48	3
TAP	75	48	5
STR	75	96	2
SLL	75	96	2	96	96	4
TAP	75	96	7
TAP	75	168	0
TAP	75	240	4
STR	75	288	5
SLR	75	288	5	96	96	3
TAP	75	360	7
TAP	76	48	3
STR	76	96	0
SXL	76	96	0	96	96	4
SXR	76	96	0	96	96	4
BRK	77	0	2
BRK	77	0	6
TAP	77	96	3
TAP	77	96	7
TAP	77	144	1
TAP	77	168	3
TAP	77	192	2
TAP	77	216	3
TAP	77	240	1
STR	77	288	2
SI_	77	288	2	96	48	7
TAP	77	288	4
STR	77	336	6
SI_	77	336	6	96	48	3
TAP	77	336	7
TAP	78	0	2
TAP	78	0	5
TAP	78	48	6
TAP	78	96	0
TAP	78	144	6
TAP	78	168	4
TAP	78	192	5
TAP	78	216	4
TAP	78	240	6
STR	78	288	1
SI_	78	288	1	96	48	5
TAP	78	288	7
TAP	78	336	0
TAP	79	0	1
STR	79	0	7
SI_	79	0	7	96	48	3
TAP	79	48	0
STR	79	96	2
SLR	79	96	2	96	72	0
TAP	79	96	7
STR	79	168	0
SI_	79	168	0	96	48	4
TAP	79	240	6
STR	79	288	5
SLL	79	288	5	96	72	7
STR	79	360	7
SI_	79	360	7	96	48	3
TAP	80	48	1
STR	80	96	0
SI_	80	96	0	96	48	3
SCR	80	96	0	96	48	3
STR	80	192	0
SI_	80	192	0	96	48	5
SCL	80	192	0	96	48	5
STR	80	288	0
SF_	80	288	0	96	48	4
TAP	81	0	0
TAP	81	96	0
TAP	81	96	4
TAP	81	144	6
TAP	81	168	4
TAP	81	192	5
TAP	81	216	4
TAP	81	240	6
TAP	81	288	3
STR	81	288	5
SI_	81	288	5	96	48	0
TAP	81	336	0
STR	81	336	1
SI_	81	336	1	96	48	4
TAP	82	0	2
TAP	82	0	5
TAP	82	48	1
TAP	82	96	7
TAP	82	144	1
TAP	82	168	3
TAP	82	192	2
TAP	82	216	3
TAP	82	240	1
TAP	82	288	0
STR	82	288	6
SI_	82	288	6	96	48	2
TAP	82	336	7
STR	83	0	0
SI_	83	0	0	96	48	4
TAP	83	0	6
TAP	83	48	7
TAP	83	96	0
BST	83	96	5
SCR	83	96	5	96	48	0
TAP	83	168	3
TAP	83	192	5
TAP	83	240	1
BST	83	288	2
SCL	83	288	2	96	48	7
TAP	83	360	4
TAP	84	0	2
TAP	84	48	6
TAP	84	96	5
TAP	84	120	4
TAP	84	144	5
TAP	84	168	4
TAP	84	192	3
TAP	84	216	4
TAP	84	240	3
TAP	84	264	4
TAP	84	288	3
TAP	84	312	2
TAP	84	336	3
TAP	84	360	2
BRK	85	0	1
BRK	85	0	6
TAP	85	96	6
TAP	85	120	7
TAP	85	144	6
TAP	85	168	7
BRK	85	192	0
BRK	85	192	5
TAP	85	240	1
TAP	85	264	0
TAP	85	288	1
TAP	85	312	0
BRK	85	336	2
BRK	85	336	7
TAP	86	0	3
TAP	86	0	4
TAP	86	24	2
TAP	86	24	5
TAP	86	48	1
TAP	86	48	6
TAP	86	72	0
TAP	86	72	7
BST	86	96	1
SI_	86	96	1	96	48	6
BST	86	96	6
SI_	86	96	6	96	48	1
HLD	86	288	2	576
HLD	86	288	7	576

T_REC_TAP	621
T_REC_BRK	37
T_REC_XTP	0
T_REC_HLD	34
T_REC_XHO	0
T_REC_STR	95
T_REC_BST	13
T_REC_XST	0
T_REC_TTP	0
T_REC_THO	0
T_REC_SLD	115
T_REC_ALL	915
T_NUM_TAP	716
T_NUM_BRK	50
T_NUM_HLD	34
T_NUM_SLD	115
T_NUM_ALL	915
T_JUDGE_TAP	766
T_JUDGE_HLD	138
T_JUDGE_SLD	115
T_JUDGE_ALL	1019
TTM_EACHPAIRS	168
TTM_SCR_TAP	358000
TTM_SCR_BRK	130000
TTM_SCR_HLD	34000
TTM_SCR_SLD	172500
TTM_SCR_ALL	694500
TTM_SCR_S	668850
TTM_SCR_SS	689500
TTM_RAT_ACV	10072

