VERSION	0.00.00	1.03.00
FES_MODE	0
BPM_DEF	160.000	160.000	160.000	160.000
MET_DEF	4	4
RESOLUTION	384
CLK_DEF	384
COMPATIBLE_CODE	MA2

BPM	0	0	160.000
MET	0	0	4	4
MET	50	0	4	3
MET	61	96	4	4
MET	62	96	4	3
MET	65	96	4	4

BST	2	0	2
SXL	2	0	2	96	480	5
BST	2	0	6
SXL	2	0	6	96	480	1
STR	4	0	3
SV_	4	0	3	96	192	5
STR	4	0	6
SLR	4	0	6	96	192	2
STR	5	0	1
SLL	5	0	1	96	192	5
STR	5	0	4
SV_	5	0	4	96	192	2
HLD	6	0	7	1056
STR	6	96	0
SI_	6	96	0	96	48	4
STR	6	288	4
SI_	6	288	4	96	48	1
STR	7	96	1
SI_	7	96	1	96	48	6
STR	7	288	6
SI_	7	288	6	96	48	3
STR	8	96	3
SI_	8	96	3	96	48	0
TAP	8	288	0
HLD	9	0	3	48
HLD	9	0	4	48
TAP	9	72	3
TAP	9	72	4
TAP	9	144	0
TAP	9	144	7
TAP	9	216	1
TAP	9	216	6
TAP	9	288	2
TAP	9	288	5
TAP	9	336	4
HLD	10	0	3	72
HLD	10	72	2	72
HLD	10	144	1	96
TAP	10	240	0
TAP	10	288	0
TAP	10	288	1
HLD	11	0	4	72
HLD	11	72	5	72
HLD	11	144	6	96
TAP	11	240	7
TAP	11	288	6
TAP	11	288	7
HLD	12	0	3	72
HLD	12	72	2	72
HLD	12	144	1	96
TAP	12	240	0
TAP	12	288	0
TAP	12	288	1
STR	13	0	7
SCL	13	0	7	96	48	4
STR	13	96	0
SCR	13	96	0	96	48	3
STR	13	192	7
SI_	13	192	7	96	48	3
TAP	13	288	0
HLD	14	0	2	72
HLD	14	72	3	72
TAP	14	144	4
HLD	14	192	6	72
HLD	14	264	5	72
TAP	14	336	4
HLD	15	0	0	72
HLD	15	72	1	72
TAP	15	144	2
TAP	15	192	3
TAP	15	192	4
TAP	15	288	1
TAP	15	288	6
STR	16	0	2
SCL	16	0	2	96	144	5
TAP	16	288	0
TAP	16	288	7
BRK	17	0	2
TAP	17	24	3
BRK	17	72	5
TAP	17	96	4
BRK	17	144	1
TAP	17	168	3
BRK	17	216	6
TAP	17	240	4
TAP	17	288	0
TAP	17	288	7
TAP	17	336	0
TAP	17	336	7
BST	18	0	1
SI_	18	0	1	96	48	4
BST	18	0	6
SI_	18	0	6	96	48	3
TAP	18	192	2
TAP	18	240	2
TAP	18	288	1
TAP	18	288	3
TAP	19	0	5
TAP	19	48	4
TAP	19	96	3
TAP	19	96	6
TAP	19	192	0
TAP	19	240	7
TAP	19	288	6
TAP	19	336	1
TAP	19	336	5
TAP	20	0	2
TAP	20	48	2
TAP	20	96	2
TAP	20	96	3
TAP	20	192	5
TAP	20	240	5
TAP	20	288	4
TAP	20	288	6
TAP	21	0	2
TAP	21	48	3
TAP	21	96	1
TAP	21	96	4
TAP	21	192	7
TAP	21	240	0
TAP	21	288	1
TAP	21	336	2
TAP	21	336	6
TAP	22	0	5
TAP	22	48	5
TAP	22	96	4
TAP	22	96	5
TAP	22	192	2
TAP	22	240	2
TAP	22	288	1
TAP	22	288	3
TAP	23	0	5
TAP	23	48	4
TAP	23	96	3
TAP	23	96	6
TAP	23	192	0
TAP	23	240	7
TAP	23	288	6
TAP	23	336	1
TAP	23	336	5
TAP	24	0	2
TAP	24	48	2
TAP	24	96	2
TAP	24	96	3
TAP	24	192	5
TAP	24	240	5
TAP	24	288	4
TAP	24	288	6
HLD	25	0	2	72
HLD	25	72	0	72
HLD	25	144	7	72
HLD	25	216	5	72
TAP	25	288	4
TAP	25	336	3
BST	26	0	2
SI_	26	0	2	96	48	7
BST	26	0	5
SI_	26	0	5	96	48	0
TAP	26	192	6
TAP	26	240	6
TAP	26	288	5
TAP	26	288	7
TAP	27	0	1
TAP	27	48	0
TAP	27	96	2
TAP	27	96	7
TAP	27	192	4
TAP	27	240	3
TAP	27	288	2
TAP	27	336	1
TAP	27	336	5
TAP	28	0	6
TAP	28	48	6
TAP	28	96	6
TAP	28	96	7
TAP	28	192	1
TAP	28	240	1
TAP	28	288	0
TAP	28	288	2
TAP	29	0	6
TAP	29	48	7
TAP	29	96	0
TAP	29	96	5
TAP	29	192	3
TAP	29	240	4
TAP	29	288	5
TAP	29	336	2
TAP	29	336	6
TAP	30	0	1
TAP	30	48	1
TAP	30	96	0
TAP	30	96	1
TAP	30	192	6
TAP	30	240	6
TAP	30	288	5
TAP	30	288	7
TAP	31	0	1
TAP	31	48	0
TAP	31	96	2
TAP	31	96	7
TAP	31	192	4
TAP	31	240	3
TAP	31	288	2
TAP	31	336	1
TAP	31	336	5
TAP	32	0	6
TAP	32	48	6
TAP	32	96	6
TAP	32	96	7
TAP	32	192	1
TAP	32	240	1
STR	32	288	0
SI_	32	288	0	96	48	5
STR	32	288	2
SI_	32	288	2	96	48	7
STR	33	192	4
SF_	33	192	4	96	48	0
BRK	34	0	6
STR	34	48	6
SCL	34	48	6	96	48	3
TAP	34	96	7
TAP	34	144	0
TAP	34	240	2
TAP	34	288	3
TAP	34	336	2
TAP	35	0	1
STR	35	48	1
SCR	35	48	1	96	48	4
TAP	35	96	0
TAP	35	144	7
TAP	35	240	5
TAP	35	288	4
TAP	35	336	5
TAP	36	0	6
TAP	36	0	7
TAP	36	72	3
TAP	36	72	5
TAP	36	144	0
TAP	36	144	1
TAP	36	192	0
TAP	36	192	1
TAP	36	264	2
TAP	36	264	4
TAP	36	336	6
TAP	36	336	7
STR	37	0	6
SI_	37	0	6	96	48	4
TAP	37	0	7
STR	37	96	0
SI_	37	96	0	96	48	2
STR	37	192	7
SI_	37	192	7	96	48	3
TAP	37	288	0
BRK	38	0	1
STR	38	48	1
SCR	38	48	1	96	48	4
TAP	38	96	0
TAP	38	144	7
TAP	38	240	5
TAP	38	288	4
TAP	38	336	5
TAP	39	0	6
STR	39	48	6
SCL	39	48	6	96	48	3
TAP	39	96	7
TAP	39	144	0
TAP	39	240	2
TAP	39	288	3
TAP	39	336	2
TAP	40	0	0
TAP	40	0	1
TAP	40	72	2
TAP	40	72	4
TAP	40	144	6
TAP	40	144	7
TAP	40	192	6
TAP	40	192	7
TAP	40	264	3
TAP	40	264	5
TAP	40	336	0
TAP	40	336	1
STR	41	0	0
SI_	41	0	0	96	48	5
STR	41	0	1
SI_	41	0	1	96	48	4
BRK	41	192	2
BRK	41	192	7
HLD	42	0	6	384
HLD	43	0	4	384
HLD	44	0	3	384
HLD	45	0	1	384
HLD	46	0	6	1056
TAP	46	96	7
TAP	46	288	5
TAP	47	96	4
TAP	47	288	3
TAP	48	96	2
TAP	48	288	1
TAP	49	0	0
TAP	49	0	7
TAP	49	72	1
TAP	49	72	3
TAP	49	144	4
TAP	49	144	6
TAP	49	216	0
TAP	49	216	7
TAP	49	288	1
TAP	49	312	6
TAP	49	336	1
TAP	49	360	6
HLD	50	0	1	48
HLD	50	96	0	48
HLD	50	96	2	48
HLD	50	192	3	48
HLD	50	192	7	48
TAP	50	288	4
TAP	50	288	6
HLD	51	192	6	48
HLD	51	288	5	48
HLD	51	288	7	48
HLD	52	0	0	48
HLD	52	0	4	48
STR	52	96	1
SI_	52	96	1	96	48	5
TAP	52	96	3
STR	52	192	6
SI_	52	192	6	96	48	2
HLD	53	0	1	48
HLD	53	0	3	48
HLD	53	96	3	48
HLD	53	96	5	48
HLD	53	192	1	48
HLD	53	192	3	48
TAP	53	288	3
TAP	53	288	7
HLD	54	192	4	48
HLD	54	192	6	48
HLD	54	288	1	48
HLD	54	288	4	48
STR	55	0	4
SI_	55	0	4	96	48	0
STR	55	0	7
SI_	55	0	7	96	48	3
TAP	55	288	1
TAP	55	288	6
TAP	56	0	2
TAP	56	48	3
TAP	56	96	4
HLD	56	96	5	96
TAP	56	192	7
TAP	56	288	5
TAP	56	336	4
HLD	57	0	2	96
TAP	57	0	3
TAP	57	96	0
HLD	57	192	7	72
TAP	57	264	0
TAP	57	288	7
TAP	58	0	1
TAP	58	48	1
TAP	58	96	3
TAP	58	144	3
TAP	58	192	4
TAP	58	240	4
TAP	58	288	6
TAP	58	336	6
HLD	59	0	0	72
TAP	59	72	7
HLD	59	96	0	72
TAP	59	168	6
HLD	59	192	0	72
TAP	59	264	5
HLD	59	288	0	72
TAP	59	360	6
HLD	60	0	0	72
TAP	60	72	7
TAP	60	96	0
TAP	60	192	6
TAP	60	240	6
TAP	60	288	4
TAP	60	336	4
TAP	61	0	3
TAP	61	48	3
BST	61	96	1
SI_	61	96	1	96	48	3
BST	61	192	7
SI_	61	192	7	96	48	5
BST	61	288	0
SI_	61	288	0	96	48	4
BRK	62	0	7
BRK	62	96	6
TAP	62	144	7
TAP	62	192	0
TAP	62	192	5
TAP	62	288	2
TAP	62	288	4
TAP	63	0	1
TAP	63	48	0
TAP	63	96	2
TAP	63	96	7
TAP	63	192	3
TAP	63	192	5
TAP	63	288	6
TAP	63	336	7
TAP	64	0	0
TAP	64	48	1
TAP	64	96	2
TAP	64	144	3
TAP	64	192	5
TAP	64	216	4
TAP	64	240	5
TAP	64	288	2
TAP	64	312	3
TAP	64	336	2
TAP	65	0	5
TAP	65	24	4
TAP	65	48	5
BRK	65	96	2
TAP	65	144	3
TAP	65	192	1
TAP	65	192	4
TAP	65	240	1
TAP	65	240	4
TAP	65	288	0
TAP	65	288	5
TAP	65	336	0
TAP	65	336	5
BRK	66	0	6
BRK	66	0	7
BRK	66	96	5
TAP	66	144	4
TAP	66	192	3
TAP	66	192	6
TAP	66	240	3
TAP	66	240	6
TAP	66	288	2
TAP	66	288	7
TAP	66	336	2
TAP	66	336	7
BRK	67	0	0
BRK	67	0	1
BRK	67	96	3
BRK	67	96	4
TAP	67	144	2
TAP	67	168	3
TAP	67	192	2
TAP	67	240	5
TAP	67	264	4
TAP	67	288	5
TAP	67	336	1
TAP	67	360	3
TAP	68	0	2
TAP	68	48	6
TAP	68	72	4
STR	68	96	5
SCR	68	96	5	96	96	2
STR	68	288	3
SF_	68	288	3	96	48	7
BRK	69	96	1
BRK	69	96	5
STR	69	144	1
SCR	69	144	1	96	48	4
TAP	69	192	0
TAP	69	240	7
TAP	69	336	5
TAP	70	0	4
TAP	70	48	5
TAP	70	96	2
TAP	70	96	6
STR	70	144	6
SCL	70	144	6	96	48	3
TAP	70	192	7
TAP	70	240	0
TAP	70	336	2
TAP	71	0	3
TAP	71	48	2
TAP	71	96	0
TAP	71	96	1
TAP	71	168	2
TAP	71	168	4
TAP	71	240	6
TAP	71	264	7
TAP	71	288	6
TAP	71	360	3
TAP	71	360	5
TAP	72	48	1
TAP	72	72	0
STR	72	96	1
SI_	72	96	1	96	48	3
STR	72	192	7
SI_	72	192	7	96	48	5
STR	72	288	0
SI_	72	288	0	96	48	4
TAP	73	0	7
BRK	73	96	2
BRK	73	96	6
STR	73	144	6
SCL	73	144	6	96	48	3
TAP	73	192	7
TAP	73	240	0
TAP	73	336	2
TAP	74	0	3
TAP	74	48	2
TAP	74	96	1
TAP	74	96	5
STR	74	144	1
SCR	74	144	1	96	48	4
TAP	74	192	0
TAP	74	240	7
TAP	74	336	5
TAP	75	0	4
TAP	75	48	5
TAP	75	96	6
TAP	75	96	7
TAP	75	168	3
TAP	75	168	5
TAP	75	240	0
TAP	75	240	1
TAP	75	288	0
TAP	75	288	1
TAP	75	360	2
TAP	75	360	4
TAP	76	48	6
TAP	76	48	7
STR	76	96	6
SI_	76	96	6	96	48	3
STR	76	96	7
SI_	76	96	7	96	48	2
BRK	76	288	0
BRK	76	288	5
BRK	77	96	2
BRK	77	96	6
STR	77	144	2
SCL	77	144	2	96	48	7
TAP	77	192	3
TAP	77	240	4
TAP	77	336	6
TAP	78	0	7
TAP	78	48	6
BRK	78	96	1
BRK	78	96	5
STR	78	144	5
SCR	78	144	5	96	48	0
TAP	78	192	4
TAP	78	240	3
TAP	78	336	1
TAP	79	0	0
TAP	79	48	1
BRK	79	96	2
BRK	79	96	3
TAP	79	168	1
TAP	79	168	7
TAP	79	240	5
TAP	79	264	4
BRK	79	288	5
TAP	79	360	0
TAP	79	360	6
TAP	80	48	2
TAP	80	72	3
BST	80	96	2
SI_	80	96	2	96	48	0
BST	80	192	4
SI_	80	192	4	96	48	6
BST	80	288	3
SI_	80	288	3	96	48	7
BRK	81	0	6
BRK	81	96	0
BRK	81	96	5
STR	81	144	5
SCR	81	144	5	96	48	0
TAP	81	192	4
BRK	81	240	3
TAP	81	336	1
TAP	82	0	0
TAP	82	48	1
BRK	82	96	2
BRK	82	96	7
STR	82	144	2
SCL	82	144	2	96	48	7
TAP	82	192	3
BRK	82	240	4
TAP	82	336	6
TAP	83	0	7
TAP	83	48	6
BRK	83	96	4
BRK	83	96	5
TAP	83	168	0
TAP	83	168	6
TAP	83	240	2
TAP	83	240	3
BRK	83	288	2
BRK	83	288	3
TAP	83	360	1
TAP	83	360	7
TAP	84	48	4
TAP	84	48	5
BST	84	96	4
SUR	84	96	4	96	48	0
BST	84	96	5
SCR	84	96	5	96	48	7
BST	84	288	2
SCL	84	288	2	96	48	0
BST	84	288	3
SUL	84	288	3	96	48	7
BRK	85	96	6
TAP	85	120	7
BRK	85	144	6
TAP	85	168	7
BRK	85	192	6
BRK	85	240	1
TAP	85	264	0
BRK	85	288	1
TAP	85	312	0
BRK	85	336	1
BRK	86	0	7
BRK	86	24	0
BRK	86	48	7
BRK	86	72	0
BRK	86	96	7
BST	86	288	3
SI_	86	288	3	96	672	0
SCR	86	288	3	96	672	5

T_REC_TAP	391
T_REC_BRK	53
T_REC_XTP	0
T_REC_HLD	55
T_REC_XHO	0
T_REC_STR	44
T_REC_BST	17
T_REC_XST	0
T_REC_TTP	0
T_REC_THO	0
T_REC_SLD	62
T_REC_ALL	622
T_NUM_TAP	435
T_NUM_BRK	70
T_NUM_HLD	55
T_NUM_SLD	62
T_NUM_ALL	622
T_JUDGE_TAP	505
T_JUDGE_HLD	152
T_JUDGE_SLD	62
T_JUDGE_ALL	719
TTM_EACHPAIRS	124
TTM_SCR_TAP	217500
TTM_SCR_BRK	182000
TTM_SCR_HLD	55000
TTM_SCR_SLD	93000
TTM_SCR_ALL	547500
TTM_SCR_S	524300
TTM_SCR_SS	540500
TTM_RAT_ACV	10129

