VERSION	0.00.00	1.03.00
FES_MODE	0
BPM_DEF	160.000	160.000	160.000	160.000
MET_DEF	4	4
RESOLUTION	384
CLK_DEF	384
COMPATIBLE_CODE	MA2

BPM	0	0	160.000
MET	0	0	4	4
MET	50	0	4	3
MET	61	96	4	4
MET	62	96	4	3
MET	65	96	4	4

HLD	2	0	2	384
HLD	3	0	3	384
HLD	4	0	4	384
HLD	5	0	5	288
TAP	5	288	4
TAP	6	96	2
TAP	6	96	3
TAP	6	288	4
TAP	6	288	5
TAP	7	96	2
TAP	7	96	3
TAP	7	288	4
TAP	7	288	5
TAP	8	0	3
TAP	8	96	2
TAP	8	96	3
TAP	8	192	4
TAP	8	288	4
TAP	8	288	5
HLD	9	0	3	192
HLD	9	0	4	192
TAP	9	288	3
TAP	9	288	4
BST	10	0	3
SXR	10	0	3	96	480	0
BST	10	0	4
SXL	10	0	4	96	480	7
TAP	12	0	1
TAP	12	96	0
TAP	12	96	1
TAP	12	192	6
TAP	12	288	6
TAP	12	288	7
TAP	13	0	0
TAP	13	96	1
TAP	13	192	2
TAP	13	288	3
HLD	14	0	5	96
TAP	14	96	4
HLD	14	192	2	96
TAP	14	288	3
STR	15	0	5
SI_	15	0	5	96	144	0
HLD	16	0	1	96
TAP	16	96	0
HLD	16	192	6	96
STR	16	288	7
SSR	16	288	7	96	288	3
BRK	18	0	3
BRK	18	0	4
TAP	18	96	2
TAP	18	96	5
TAP	18	192	6
TAP	18	288	6
TAP	18	288	7
TAP	19	0	5
TAP	19	96	4
TAP	19	96	5
TAP	19	192	4
TAP	19	288	3
TAP	20	0	2
TAP	20	96	2
TAP	20	96	3
TAP	20	192	1
TAP	20	288	0
TAP	20	288	1
TAP	21	0	2
TAP	21	96	2
TAP	21	96	3
TAP	21	192	3
TAP	21	192	4
TAP	22	0	5
TAP	22	96	4
TAP	22	96	5
TAP	22	192	6
TAP	22	288	6
TAP	22	288	7
TAP	23	0	5
TAP	23	96	4
TAP	23	96	5
TAP	23	192	4
TAP	23	288	3
TAP	24	0	2
TAP	24	96	2
TAP	24	96	3
TAP	24	192	1
TAP	24	288	0
TAP	24	288	1
STR	25	0	2
SLR	25	0	2	96	192	6
TAP	26	0	0
TAP	26	0	7
BRK	26	96	1
BRK	26	96	6
TAP	26	192	2
TAP	26	288	2
TAP	26	288	3
TAP	27	0	1
TAP	27	96	0
TAP	27	96	1
TAP	27	192	0
TAP	27	288	7
TAP	28	0	6
TAP	28	96	6
TAP	28	96	7
TAP	28	192	5
TAP	28	288	4
TAP	28	288	5
TAP	29	0	6
TAP	29	96	6
TAP	29	96	7
TAP	29	192	0
TAP	29	192	5
TAP	30	0	1
TAP	30	96	0
TAP	30	96	1
TAP	30	192	2
TAP	30	288	2
TAP	30	288	3
TAP	31	0	1
TAP	31	96	0
TAP	31	96	1
TAP	31	192	0
TAP	31	288	7
HLD	32	0	6	96
HLD	32	96	7	96
HLD	32	192	0	96
TAP	32	288	1
TAP	33	0	2
TAP	33	0	7
TAP	33	192	0
TAP	33	192	7
BRK	33	288	1
BRK	33	288	6
TAP	34	0	0
TAP	34	96	0
TAP	34	96	1
TAP	34	192	2
TAP	34	240	2
TAP	34	288	3
TAP	35	0	4
TAP	35	96	4
TAP	35	96	5
TAP	35	192	6
TAP	35	240	6
TAP	35	288	7
TAP	36	0	0
TAP	36	0	7
TAP	36	96	6
TAP	36	192	0
TAP	36	192	7
TAP	36	288	1
TAP	37	0	0
TAP	37	0	7
TAP	37	96	4
TAP	37	96	6
TAP	37	192	1
TAP	37	192	3
TAP	37	288	0
TAP	37	288	7
TAP	38	0	7
TAP	38	96	6
TAP	38	96	7
TAP	38	192	5
TAP	38	240	5
TAP	38	288	4
TAP	39	0	3
TAP	39	96	2
TAP	39	96	3
TAP	39	192	1
TAP	39	240	1
TAP	39	288	0
TAP	40	0	0
TAP	40	0	7
TAP	40	96	1
TAP	40	192	0
TAP	40	192	7
TAP	40	288	6
STR	41	0	0
SCR	41	0	0	96	168	3
STR	41	0	7
SCL	41	0	7	96	168	4
HLD	42	0	5	384
HLD	43	0	4	384
HLD	44	0	3	384
HLD	45	0	2	288
TAP	45	288	3
TAP	46	96	4
TAP	46	96	5
TAP	46	288	2
TAP	46	288	3
TAP	47	96	4
TAP	47	96	5
TAP	47	288	2
TAP	47	288	3
TAP	48	96	4
TAP	48	96	6
TAP	48	288	1
TAP	48	288	3
HLD	49	0	0	192
HLD	49	0	7	192
TAP	49	288	0
TAP	49	288	7
TAP	50	0	6
TAP	50	0	7
TAP	50	96	6
TAP	50	96	7
TAP	50	192	6
TAP	50	192	7
TAP	50	288	0
TAP	50	288	5
TAP	51	192	0
TAP	51	192	1
TAP	51	288	0
TAP	51	288	1
TAP	52	0	0
TAP	52	0	1
TAP	52	96	2
TAP	52	96	7
TAP	52	192	3
TAP	52	288	4
TAP	53	0	4
TAP	53	0	5
TAP	53	96	4
TAP	53	96	5
TAP	53	192	4
TAP	53	192	5
TAP	53	288	3
TAP	53	288	6
TAP	54	192	2
TAP	54	192	3
TAP	54	288	2
TAP	54	288	3
TAP	55	0	2
TAP	55	0	3
TAP	55	96	1
TAP	55	96	4
TAP	56	0	2
TAP	56	96	3
TAP	56	192	4
TAP	56	288	5
TAP	57	0	4
TAP	57	0	5
TAP	57	192	5
TAP	57	288	4
TAP	58	0	3
TAP	58	96	2
TAP	58	192	2
TAP	58	192	3
HLD	59	0	2	96
HLD	59	96	3	96
HLD	59	192	4	96
TAP	59	288	5
TAP	60	0	4
TAP	60	0	6
HLD	60	192	5	96
HLD	60	288	4	96
HLD	61	0	3	96
TAP	61	96	2
TAP	61	192	2
TAP	61	192	3
TAP	61	288	1
TAP	61	288	4
HLD	62	96	2	96
HLD	62	96	3	96
TAP	62	288	3
TAP	63	0	4
HLD	63	96	4	96
HLD	63	96	5	96
TAP	63	288	6
TAP	63	288	7
TAP	64	0	5
TAP	64	96	4
TAP	64	192	3
TAP	64	288	2
TAP	65	0	1
STR	65	96	0
SLR	65	96	0	96	192	4
TAP	65	96	7
TAP	66	96	3
STR	66	96	4
SLR	66	96	4	96	192	0
TAP	67	96	2
TAP	67	192	1
TAP	67	288	0
STR	68	0	7
SLL	68	0	7	96	264	3
SLR	68	0	7	96	264	3
TAP	69	96	7
TAP	69	192	6
TAP	69	192	7
TAP	69	288	5
TAP	69	336	5
TAP	70	0	4
TAP	70	96	3
TAP	70	192	2
TAP	70	192	3
TAP	70	288	1
TAP	70	336	1
TAP	71	0	0
TAP	71	96	0
TAP	71	96	7
TAP	71	192	1
TAP	71	288	0
TAP	71	288	7
TAP	72	0	6
TAP	72	96	0
TAP	72	96	7
TAP	72	192	1
TAP	72	192	3
TAP	72	288	4
TAP	72	288	6
TAP	73	0	0
TAP	73	0	7
TAP	73	96	0
TAP	73	192	0
TAP	73	192	1
TAP	73	288	2
TAP	73	336	2
TAP	74	0	3
TAP	74	96	4
TAP	74	192	4
TAP	74	192	5
TAP	74	288	6
TAP	74	336	6
TAP	75	0	7
TAP	75	96	0
TAP	75	96	7
TAP	75	192	6
TAP	75	288	0
TAP	75	288	7
TAP	76	0	1
STR	76	96	0
SCR	76	96	0	96	168	3
STR	76	96	7
SCL	76	96	7	96	168	4
TAP	77	96	0
TAP	77	192	1
TAP	77	192	7
TAP	77	288	2
TAP	77	336	2
TAP	78	0	2
TAP	78	0	3
TAP	78	96	4
TAP	78	192	3
TAP	78	192	5
TAP	78	288	6
TAP	78	336	6
TAP	79	0	6
TAP	79	0	7
TAP	79	96	0
TAP	79	96	7
TAP	79	192	6
TAP	79	288	0
TAP	79	288	7
TAP	80	0	1
TAP	80	96	0
TAP	80	96	7
TAP	80	192	3
TAP	80	192	6
TAP	80	288	1
TAP	80	288	4
TAP	81	0	0
TAP	81	0	7
TAP	81	96	7
TAP	81	192	0
TAP	81	192	6
TAP	81	288	5
TAP	81	336	5
TAP	82	0	4
TAP	82	0	5
TAP	82	96	3
TAP	82	192	2
TAP	82	192	4
TAP	82	288	1
TAP	82	336	1
TAP	83	0	0
TAP	83	0	1
TAP	83	96	0
TAP	83	96	7
TAP	83	192	1
TAP	83	192	3
TAP	83	288	0
TAP	83	288	7
TAP	84	0	4
TAP	84	0	6
STR	84	96	0
SCR	84	96	0	96	192	3
STR	84	96	7
SCL	84	96	7	96	192	4
TAP	85	96	4
TAP	85	96	6
TAP	85	192	0
TAP	85	192	7
TAP	85	288	1
TAP	85	288	3
TAP	86	0	3
TAP	86	0	4
BRK	86	96	1
BRK	86	96	6
BST	86	288	0
SUR	86	288	0	96	576	5
BRK	86	288	7

T_REC_TAP	334
T_REC_BRK	9
T_REC_XTP	0
T_REC_HLD	29
T_REC_XHO	0
T_REC_STR	12
T_REC_BST	3
T_REC_XST	0
T_REC_TTP	0
T_REC_THO	0
T_REC_SLD	16
T_REC_ALL	403
T_NUM_TAP	346
T_NUM_BRK	12
T_NUM_HLD	29
T_NUM_SLD	16
T_NUM_ALL	403
T_JUDGE_TAP	358
T_JUDGE_HLD	110
T_JUDGE_SLD	16
T_JUDGE_ALL	484
TTM_EACHPAIRS	123
TTM_SCR_TAP	173000
TTM_SCR_BRK	31200
TTM_SCR_HLD	29000
TTM_SCR_SLD	24000
TTM_SCR_ALL	257200
TTM_SCR_S	248350
TTM_SCR_SS	256000
TTM_RAT_ACV	10046

