VERSION	0.00.00	1.03.00
FES_MODE	0
BPM_DEF	160.000	160.000	160.000	160.000
MET_DEF	4	4
RESOLUTION	384
CLK_DEF	384
COMPATIBLE_CODE	MA2

BPM	0	0	160.000
MET	0	0	4	4
MET	50	0	4	3
MET	61	96	4	4
MET	62	96	4	3
MET	65	96	4	4

HLD	2	0	0	192
HLD	3	0	7	192
HLD	4	0	6	192
HLD	5	0	5	192
TAP	6	0	4
TAP	6	192	4
TAP	7	0	3
TAP	7	192	3
TAP	8	0	2
TAP	8	192	2
HLD	9	0	0	192
HLD	9	0	1	192
TAP	10	0	0
TAP	10	96	0
TAP	10	192	0
TAP	11	0	1
TAP	11	96	1
TAP	11	192	1
TAP	12	0	2
TAP	12	96	2
TAP	12	192	2
TAP	13	0	3
TAP	13	96	4
TAP	13	192	3
TAP	14	0	4
TAP	14	96	4
TAP	14	192	4
TAP	15	0	5
TAP	15	96	5
TAP	15	192	5
TAP	16	0	6
TAP	16	96	6
TAP	16	192	6
TAP	17	0	7
TAP	17	96	0
TAP	17	192	7
BRK	18	0	7
TAP	18	96	7
TAP	18	192	0
TAP	18	192	7
TAP	19	0	6
TAP	19	96	6
TAP	19	192	6
TAP	19	192	7
TAP	20	0	5
TAP	20	96	5
TAP	20	192	4
TAP	20	192	5
HLD	21	0	3	192
TAP	21	192	4
TAP	22	0	4
TAP	22	96	4
TAP	22	192	3
TAP	22	192	4
TAP	23	0	3
TAP	23	96	3
TAP	23	192	3
TAP	23	192	4
TAP	24	0	2
TAP	24	96	2
TAP	24	192	2
TAP	24	192	3
TAP	25	0	1
TAP	25	96	1
TAP	25	192	0
TAP	25	192	1
TAP	26	0	0
TAP	26	0	7
TAP	26	96	0
TAP	26	96	7
BRK	26	192	0
BRK	26	192	7
TAP	27	0	1
TAP	27	96	1
TAP	27	192	0
TAP	27	192	1
TAP	28	0	2
TAP	28	96	2
TAP	28	192	2
TAP	28	192	3
HLD	29	0	4	192
TAP	29	192	3
TAP	30	0	3
TAP	30	96	3
TAP	30	192	3
TAP	30	192	4
TAP	31	0	4
TAP	31	96	4
TAP	31	192	3
TAP	31	192	4
TAP	32	0	5
TAP	32	96	5
TAP	32	192	4
TAP	32	192	5
HLD	33	0	6	192
HLD	33	0	7	192
TAP	34	0	7
TAP	34	96	7
TAP	34	192	6
TAP	34	288	6
TAP	35	0	5
TAP	35	96	5
TAP	35	192	4
TAP	35	288	4
HLD	36	0	2	192
HLD	36	0	3	192
TAP	37	0	4
TAP	37	96	4
TAP	37	192	3
TAP	37	192	5
TAP	38	0	3
TAP	38	96	3
TAP	38	192	2
TAP	38	288	2
TAP	39	0	1
TAP	39	96	1
TAP	39	192	0
TAP	39	288	0
HLD	40	0	6	192
HLD	40	0	7	192
TAP	41	0	0
TAP	41	0	7
TAP	41	96	0
TAP	41	96	7
BRK	41	192	1
BRK	41	192	6
STR	42	0	0
SI_	42	0	0	96	288	4
STR	44	0	7
SI_	44	0	7	96	288	3
STR	46	0	2
SI_	46	0	2	96	288	7
STR	48	0	5
SI_	48	0	5	96	288	0
HLD	50	0	0	288
HLD	50	0	7	288
HLD	51	192	1	288
HLD	51	192	6	288
HLD	53	0	2	288
HLD	53	0	5	288
HLD	54	192	3	288
HLD	54	192	4	288
TAP	56	0	2
TAP	56	96	2
TAP	56	192	1
TAP	56	288	1
TAP	57	0	0
TAP	57	96	0
TAP	57	192	6
TAP	57	192	7
TAP	57	288	6
TAP	57	288	7
TAP	58	0	6
TAP	58	96	6
TAP	58	192	5
TAP	58	288	5
TAP	59	0	4
TAP	59	96	4
TAP	59	192	3
TAP	59	288	3
TAP	60	0	2
TAP	60	96	2
TAP	60	192	1
TAP	60	288	1
TAP	61	0	0
HLD	61	96	0	192
TAP	61	288	7
TAP	62	96	1
TAP	62	192	1
TAP	62	288	2
TAP	63	0	2
TAP	63	96	3
TAP	63	96	4
TAP	63	192	3
TAP	63	192	4
TAP	63	288	4
TAP	64	0	4
TAP	64	96	5
TAP	64	192	5
TAP	64	288	6
TAP	65	0	6
TAP	65	96	7
TAP	65	192	7
TAP	65	288	0
TAP	66	0	0
TAP	66	96	1
TAP	66	192	1
TAP	66	288	2
TAP	67	0	2
TAP	67	96	3
TAP	67	192	4
TAP	67	288	5
TAP	68	0	6
HLD	68	96	0	288
HLD	68	96	7	288
TAP	69	96	7
TAP	69	192	7
TAP	69	288	6
TAP	69	288	7
TAP	70	0	6
TAP	70	0	7
TAP	70	96	5
TAP	70	192	5
TAP	70	288	4
TAP	70	288	5
TAP	71	0	4
TAP	71	0	5
HLD	71	96	3	192
TAP	71	288	4
TAP	72	96	3
TAP	72	96	4
TAP	72	192	3
TAP	72	192	4
TAP	72	288	2
TAP	72	288	5
TAP	73	96	3
TAP	73	192	3
TAP	73	288	2
TAP	73	288	3
TAP	74	0	2
TAP	74	0	3
TAP	74	96	1
TAP	74	192	1
TAP	74	288	0
TAP	74	288	1
TAP	75	0	0
TAP	75	0	1
HLD	75	96	7	192
TAP	75	288	0
TAP	76	96	0
TAP	76	96	7
TAP	76	192	0
TAP	76	192	7
TAP	76	288	1
TAP	76	288	6
TAP	77	96	0
TAP	77	192	1
TAP	77	288	2
TAP	77	288	3
TAP	78	0	2
TAP	78	0	3
TAP	78	96	4
TAP	78	192	5
TAP	78	288	6
TAP	78	288	7
TAP	79	0	6
TAP	79	0	7
HLD	79	96	0	192
TAP	79	288	7
TAP	80	96	0
TAP	80	192	7
TAP	80	288	1
TAP	80	288	6
TAP	81	96	7
TAP	81	192	6
TAP	81	288	4
TAP	81	288	5
TAP	82	0	4
TAP	82	0	5
TAP	82	96	3
TAP	82	192	2
TAP	82	288	0
TAP	82	288	1
TAP	83	0	0
TAP	83	0	1
STR	83	96	7
SI_	83	96	7	96	288	3
TAP	85	96	3
TAP	85	96	4
TAP	85	192	3
TAP	85	192	4
TAP	85	288	2
TAP	85	288	5
TAP	86	0	2
TAP	86	0	5
TAP	86	96	1
TAP	86	96	6
STR	86	288	0
SI_	86	288	0	96	288	3
STR	86	288	7
SI_	86	288	7	96	288	4

T_REC_TAP	234
T_REC_BRK	5
T_REC_XTP	0
T_REC_HLD	28
T_REC_XHO	0
T_REC_STR	7
T_REC_BST	0
T_REC_XST	0
T_REC_TTP	0
T_REC_THO	0
T_REC_SLD	7
T_REC_ALL	281
T_NUM_TAP	241
T_NUM_BRK	5
T_NUM_HLD	28
T_NUM_SLD	7
T_NUM_ALL	281
T_JUDGE_TAP	246
T_JUDGE_HLD	132
T_JUDGE_SLD	7
T_JUDGE_ALL	385
TTM_EACHPAIRS	61
TTM_SCR_TAP	120500
TTM_SCR_BRK	13000
TTM_SCR_HLD	28000
TTM_SCR_SLD	10500
TTM_SCR_ALL	172000
TTM_SCR_S	166400
TTM_SCR_SS	171500
TTM_RAT_ACV	10029

