VERSION	0.00.00	1.03.00
FES_MODE	0
BPM_DEF	180.000	180.000	180.000	180.000
MET_DEF	4	4
RESOLUTION	384
CLK_DEF	384
COMPATIBLE_CODE	MA2

BPM	0	0	180.000

TAP	5	0	2
TAP	5	0	3
TAP	5	96	3
TAP	5	96	5
TAP	5	192	1
TAP	5	192	3
TAP	5	288	3
TAP	5	288	6
TAP	6	0	4
TAP	6	0	5
TAP	6	96	2
TAP	6	96	4
TAP	6	192	4
TAP	6	192	6
TAP	6	288	1
TAP	6	288	4
TAP	7	0	0
TAP	7	48	7
TAP	7	96	6
TAP	7	144	5
TAP	7	192	4
TAP	7	240	3
TAP	7	288	2
TAP	7	336	1
STR	8	0	0
SXR	8	0	0	96	192	3
STR	8	0	4
SCR	8	0	4	96	192	2
STR	9	0	0
SI_	9	0	0	96	48	4
STR	9	0	1
SI_	9	0	1	96	48	4
STR	9	192	0
SI_	9	192	0	96	48	4
STR	9	192	1
SI_	9	192	1	96	48	4
TAP	10	0	2
TAP	10	0	6
TAP	10	48	1
TAP	10	48	7
STR	10	96	0
SF_	10	96	0	96	48	4
STR	11	0	6
SI_	11	0	6	96	48	3
STR	11	0	7
SI_	11	0	7	96	48	3
STR	11	192	6
SI_	11	192	6	96	48	3
STR	11	192	7
SI_	11	192	7	96	48	3
TAP	12	0	1
TAP	12	0	5
TAP	12	48	0
TAP	12	48	6
STR	12	96	7
SF_	12	96	7	96	48	3
STR	13	0	0
SUL	13	0	0	96	48	4
STR	13	0	1
SUL	13	0	1	96	48	4
STR	13	192	0
SUL	13	192	0	96	48	4
STR	13	192	1
SUL	13	192	1	96	48	4
TAP	14	0	2
TAP	14	0	6
TAP	14	48	1
TAP	14	48	7
STR	14	96	0
SF_	14	96	0	96	48	4
STR	15	0	6
SUR	15	0	6	96	48	3
STR	15	0	7
SUR	15	0	7	96	48	3
STR	15	192	6
SUR	15	192	6	96	48	3
STR	15	192	7
SUR	15	192	7	96	48	3
TAP	16	0	1
TAP	16	0	5
TAP	16	48	0
TAP	16	48	6
STR	16	96	7
SF_	16	96	7	96	48	3
HLD	17	0	3	48
HLD	17	0	4	48
HLD	17	96	3	48
HLD	17	96	4	48
TAP	17	192	2
TAP	17	216	3
TAP	17	240	2
TAP	17	288	4
TAP	17	288	6
HLD	18	0	3	48
HLD	18	0	4	48
HLD	18	96	3	48
HLD	18	96	4	48
TAP	18	192	5
TAP	18	216	4
TAP	18	240	5
TAP	18	288	2
TAP	18	288	7
HLD	19	0	3	48
HLD	19	0	4	48
HLD	19	96	3	48
HLD	19	96	4	48
TAP	19	192	2
TAP	19	216	3
TAP	19	240	2
TAP	19	288	4
TAP	19	288	7
HLD	20	0	3	48
HLD	20	0	4	48
HLD	20	96	3	48
HLD	20	96	4	48
TAP	20	192	5
TAP	20	216	4
BRK	20	240	7
BRK	20	288	7
HLD	21	0	3	48
HLD	21	0	4	48
HLD	21	96	2	48
HLD	21	96	3	48
TAP	21	192	1
TAP	21	216	0
TAP	21	240	1
TAP	21	288	0
TAP	21	288	5
HLD	22	0	3	48
HLD	22	0	4	48
HLD	22	96	4	48
HLD	22	96	5	48
TAP	22	192	6
TAP	22	216	7
TAP	22	240	6
TAP	22	288	1
TAP	22	288	3
HLD	23	0	3	48
HLD	23	0	4	48
HLD	23	96	2	48
HLD	23	96	3	48
TAP	23	192	1
TAP	23	216	0
TAP	23	240	1
TAP	23	288	4
TAP	23	288	7
HLD	24	0	3	48
HLD	24	0	4	48
HLD	24	96	4	48
HLD	24	96	5	48
TAP	24	192	6
TAP	24	216	7
TAP	24	240	6
TAP	24	288	1
TAP	24	288	2
STR	25	0	0
SI_	25	0	0	96	48	3
HLD	25	96	0	96
STR	25	192	7
SI_	25	192	7	96	48	4
HLD	25	288	7	96
TAP	26	0	2
TAP	26	48	2
TAP	26	96	1
TAP	26	144	1
STR	26	192	0
SI_	26	192	0	96	48	3
STR	26	192	7
SI_	26	192	7	96	48	4
TAP	26	288	0
TAP	26	288	7
STR	27	0	7
SI_	27	0	7	96	48	4
HLD	27	96	7	96
STR	27	192	0
SI_	27	192	0	96	48	3
HLD	27	288	0	96
TAP	28	0	5
TAP	28	48	5
TAP	28	96	6
TAP	28	144	6
STR	28	192	0
SI_	28	192	0	96	48	3
STR	28	192	7
SI_	28	192	7	96	48	4
TAP	28	288	0
TAP	28	288	7
STR	29	0	0
SUL	29	0	0	96	48	3
HLD	29	96	0	96
STR	29	192	7
SUR	29	192	7	96	48	4
HLD	29	288	7	96
TAP	30	0	2
TAP	30	48	2
TAP	30	96	1
TAP	30	144	1
STR	30	192	0
SCR	30	192	0	96	48	3
STR	30	192	7
SUR	30	192	7	96	48	4
TAP	30	288	0
TAP	30	288	7
STR	31	0	7
SUR	31	0	7	96	48	4
HLD	31	96	7	96
STR	31	192	0
SUL	31	192	0	96	48	3
HLD	31	288	0	96
TAP	32	0	5
TAP	32	48	5
TAP	32	96	6
TAP	32	144	6
STR	32	192	0
SUL	32	192	0	96	48	3
STR	32	192	7
SCL	32	192	7	96	48	4
TAP	32	288	0
TAP	32	288	7
HLD	33	0	1	144
TAP	33	96	2
TAP	33	144	2
HLD	33	192	3	144
TAP	33	288	2
TAP	33	336	2
HLD	34	0	1	96
TAP	34	48	2
TAP	34	96	3
TAP	34	144	2
STR	34	192	1
SI_	34	192	1	96	48	4
STR	34	192	3
SI_	34	192	3	96	48	6
HLD	35	0	6	144
TAP	35	96	5
TAP	35	144	5
HLD	35	192	4	144
TAP	35	288	5
TAP	35	336	5
HLD	36	0	6	96
TAP	36	48	5
TAP	36	96	4
TAP	36	144	3
STR	36	192	3
SSR	36	192	3	96	48	7
STR	36	192	4
SSL	36	192	4	96	48	0
BRK	37	0	0
BRK	37	48	1
BRK	37	96	2
HLD	37	192	3	48
HLD	37	192	4	48
HLD	37	288	3	48
HLD	37	288	4	48
STR	38	0	3
SCL	38	0	3	96	96	5
STR	38	0	7
SXL	38	0	7	96	96	4
TAP	38	288	2
TAP	38	288	6
TAP	39	0	1
TAP	39	0	3
TAP	39	48	2
TAP	39	96	4
TAP	39	96	6
TAP	39	144	5
TAP	39	192	0
TAP	39	192	3
TAP	39	240	2
TAP	39	288	4
TAP	39	288	7
TAP	39	336	5
STR	40	0	2
SXR	40	0	2	96	96	7
STR	40	0	3
SXL	40	0	3	96	96	6
BRK	40	288	0
BRK	40	288	5
STR	41	0	1
SUL	41	0	1	96	192	3
TAP	41	288	7
STR	42	0	7
SCL	42	0	7	96	96	3
STR	42	192	1
SCL	42	192	1	96	96	5
STR	42	336	4
SCR	42	336	4	96	624	3
TAP	43	96	3
TAP	43	192	4
TAP	43	288	5
TAP	44	0	6
TAP	44	96	7
TAP	44	192	0
TAP	44	288	1
STR	45	0	5
SUL	45	0	5	96	192	7
TAP	45	192	1
STR	45	288	1
SCR	45	288	1	96	96	4
STR	46	96	5
SCL	46	96	5	96	192	2
STR	47	0	0
SI_	47	0	0	96	48	4
STR	47	144	2
SI_	47	144	2	96	48	7
STR	47	288	5
SUL	47	288	5	96	192	0
TAP	48	0	7
TAP	48	96	6
TAP	48	192	5
TAP	48	288	4
STR	49	0	6
SUR	49	0	6	96	192	4
TAP	49	288	0
STR	50	0	0
SCR	50	0	0	96	96	4
STR	50	264	6
SCR	50	264	6	96	96	2
STR	51	48	3
SCL	51	48	3	96	432	4
TAP	51	288	2
TAP	52	0	1
TAP	52	96	0
TAP	52	192	7
TAP	52	288	6
TAP	53	0	4
TAP	53	0	6
TAP	53	48	5
TAP	53	96	5
TAP	53	144	1
TAP	53	144	3
TAP	53	192	2
TAP	53	240	2
TAP	53	288	0
TAP	53	288	7
TAP	53	336	6
TAP	54	0	0
TAP	54	0	2
TAP	54	48	1
TAP	54	96	1
TAP	54	144	5
TAP	54	144	7
TAP	54	192	6
TAP	54	240	6
TAP	54	288	0
TAP	54	288	7
TAP	54	336	1
TAP	55	0	4
TAP	55	24	3
TAP	55	48	4
TAP	55	72	3
TAP	55	96	5
TAP	55	120	2
TAP	55	144	5
TAP	55	168	2
TAP	55	192	6
TAP	55	216	1
TAP	55	240	6
TAP	55	264	1
TAP	55	288	7
TAP	55	312	0
TAP	55	336	7
TAP	56	0	1
HLD	56	0	6	96
TAP	56	192	5
TAP	56	216	4
TAP	56	240	5
BRK	56	288	2
BRK	56	288	7
STR	57	0	0
SI_	57	0	0	96	48	4
STR	57	0	2
SV_	57	0	2	96	48	4
STR	57	192	0
SI_	57	192	0	96	48	4
STR	57	192	2
SV_	57	192	2	96	48	4
TAP	58	0	0
TAP	58	0	4
TAP	58	48	1
TAP	58	48	5
STR	58	96	2
SLL	58	96	2	96	48	4
STR	58	96	6
SLR	58	96	6	96	48	4
STR	59	0	5
SV_	59	0	5	96	48	3
STR	59	0	7
SI_	59	0	7	96	48	3
STR	59	192	5
SV_	59	192	5	96	48	3
STR	59	192	7
SI_	59	192	7	96	48	3
TAP	60	0	3
TAP	60	0	7
TAP	60	48	2
TAP	60	48	6
STR	60	96	1
SLL	60	96	1	96	48	3
STR	60	96	5
SLR	60	96	5	96	48	3
STR	61	0	2
SLL	61	0	2	96	48	4
STR	61	0	7
SI_	61	0	7	96	48	5
STR	61	192	2
SLL	61	192	2	96	48	4
STR	61	192	7
SI_	61	192	7	96	48	5
TAP	62	0	0
TAP	62	0	6
TAP	62	48	1
TAP	62	48	7
STR	62	96	0
SI_	62	96	0	96	48	4
STR	62	96	2
SLL	62	96	2	96	48	4
STR	63	0	0
SI_	63	0	0	96	48	2
STR	63	0	5
SLR	63	0	5	96	48	3
STR	63	192	0
SI_	63	192	0	96	48	2
STR	63	192	5
SLR	63	192	5	96	48	3
TAP	64	0	1
TAP	64	0	7
TAP	64	48	0
TAP	64	48	6
STR	64	96	5
SLR	64	96	5	96	48	3
STR	64	96	7
SI_	64	96	7	96	48	3
HLD	65	0	0	48
HLD	65	0	1	48
HLD	65	96	2	48
HLD	65	96	3	48
TAP	65	192	1
TAP	65	216	3
TAP	65	240	2
TAP	65	288	3
TAP	65	288	7
HLD	66	0	6	48
HLD	66	0	7	48
HLD	66	96	4	48
HLD	66	96	5	48
TAP	66	192	6
TAP	66	216	4
TAP	66	240	5
TAP	66	288	0
TAP	66	288	2
HLD	67	0	0	48
HLD	67	0	1	48
HLD	67	96	2	48
HLD	67	96	3	48
TAP	67	192	1
TAP	67	216	3
TAP	67	240	2
TAP	67	288	0
TAP	67	288	6
HLD	68	0	6	48
HLD	68	0	7	48
HLD	68	96	4	48
HLD	68	96	5	48
TAP	68	192	1
TAP	68	192	6
BRK	68	240	0
BRK	68	240	7
BRK	68	288	0
BRK	68	288	7
HLD	69	0	1	48
HLD	69	0	3	48
HLD	69	96	0	48
HLD	69	96	2	48
TAP	69	192	1
TAP	69	216	0
TAP	69	240	2
TAP	69	288	3
TAP	69	288	7
HLD	70	0	4	48
HLD	70	0	6	48
HLD	70	96	5	48
HLD	70	96	7	48
TAP	70	192	6
TAP	70	216	7
TAP	70	240	5
TAP	70	288	2
TAP	70	288	6
HLD	71	0	2	48
HLD	71	0	7	48
HLD	71	96	0	48
HLD	71	96	3	48
TAP	71	192	2
TAP	71	216	3
TAP	71	240	1
TAP	71	288	4
TAP	71	288	7
HLD	72	0	0	48
HLD	72	0	5	48
HLD	72	96	4	48
HLD	72	96	7	48
TAP	72	192	5
TAP	72	216	4
TAP	72	240	6
TAP	72	288	0
TAP	72	288	1
STR	73	0	0
SI_	73	0	0	96	48	3
TAP	73	0	7
HLD	73	96	0	96
STR	73	192	7
SI_	73	192	7	96	48	4
HLD	73	288	7	96
TAP	74	0	3
TAP	74	48	2
TAP	74	96	1
TAP	74	144	0
STR	74	192	0
SI_	74	192	0	96	48	3
STR	74	192	7
SI_	74	192	7	96	48	4
TAP	74	288	0
TAP	74	288	7
STR	75	0	7
SUR	75	0	7	96	48	4
HLD	75	96	7	96
STR	75	192	0
SUL	75	192	0	96	48	3
HLD	75	288	0	96
TAP	76	0	4
TAP	76	48	5
TAP	76	96	6
TAP	76	144	7
STR	76	192	0
SUL	76	192	0	96	48	3
STR	76	192	7
SCL	76	192	7	96	48	4
TAP	76	288	0
TAP	76	288	7
STR	77	0	1
SUR	77	0	1	96	72	2
TAP	77	96	7
STR	77	192	6
SUL	77	192	6	96	72	5
TAP	77	288	0
TAP	78	0	3
TAP	78	48	4
STR	78	96	1
SSR	78	96	1	96	96	5
STR	78	96	6
SSL	78	96	6	96	96	2
STR	79	0	0
SV_	79	0	0	96	48	3
SV_	79	0	0	96	48	5
STR	79	192	4
SCL	79	192	4	96	48	1
HLD	79	192	6	96
STR	80	0	6
SI_	80	0	6	96	48	2
STR	80	0	7
SI_	80	0	7	96	48	4
TAP	80	192	0
TAP	80	192	1
STR	80	288	5
SI_	80	288	5	96	48	1
STR	80	288	6
SI_	80	288	6	96	48	2
HLD	81	96	0	96
TAP	81	96	7
HLD	81	192	1	96
HLD	81	288	2	96
STR	82	0	6
SCR	82	0	6	96	96	1
STR	82	96	1
SV_	82	96	1	96	96	3
TAP	82	192	3
HLD	83	0	0	96
TAP	83	0	4
HLD	83	96	7	96
HLD	83	192	6	96
HLD	83	288	5	96
STR	84	0	1
SI_	84	0	1	96	48	4
STR	84	48	4
SI_	84	48	4	96	48	1
STR	84	96	1
SCL	84	96	1	96	96	4
TAP	84	144	7
HLD	84	192	7	96
STR	85	0	6
SI_	85	0	6	96	48	1
HLD	85	0	7	96
TAP	85	96	6
STR	85	192	0
SUR	85	192	0	96	48	4
HLD	85	192	7	96
TAP	85	288	0
STR	86	0	0
SI_	86	0	0	96	96	6
SLR	86	0	0	96	96	4
TAP	86	0	1
BRK	86	288	0
BRK	86	288	7
STR	87	0	1
SCR	87	0	1	96	48	4
HLD	87	0	6	288
TAP	87	96	1
STR	87	192	1
SCR	87	192	1	96	48	4
TAP	87	288	1
TAP	88	0	2
TAP	88	48	3
TAP	88	96	4
TAP	88	144	5
STR	88	192	0
SI_	88	192	0	96	48	5
STR	88	192	1
SI_	88	192	1	96	48	4
TAP	88	288	0
TAP	88	288	1
TAP	89	0	2
HLD	89	0	3	48
TAP	89	48	1
TAP	89	96	2
HLD	89	96	3	48
TAP	89	144	1
TAP	89	192	2
TAP	89	216	3
TAP	89	240	1
TAP	89	288	0
TAP	89	288	7
HLD	90	0	4	48
TAP	90	0	5
TAP	90	48	6
HLD	90	96	4	48
TAP	90	96	5
TAP	90	144	6
TAP	90	192	5
TAP	90	216	4
TAP	90	240	6
TAP	90	288	0
TAP	90	288	7
TAP	91	0	2
HLD	91	0	3	48
TAP	91	48	0
TAP	91	96	2
HLD	91	96	3	48
TAP	91	144	0
TAP	91	192	2
TAP	91	216	3
TAP	91	240	0
TAP	91	288	1
TAP	91	288	6
HLD	92	0	4	48
TAP	92	0	5
TAP	92	48	7
HLD	92	96	4	48
TAP	92	96	5
TAP	92	144	7
TAP	92	192	5
TAP	92	216	4
TAP	92	240	7
TAP	92	288	1
TAP	92	288	6
TAP	93	0	2
TAP	93	0	3
TAP	93	48	2
TAP	93	48	3
TAP	93	96	1
TAP	93	96	4
TAP	93	144	1
TAP	93	144	4
TAP	93	192	0
TAP	93	192	5
TAP	93	240	0
TAP	93	240	5
TAP	93	288	6
TAP	93	288	7
TAP	93	336	6
TAP	93	336	7
TAP	94	0	4
TAP	94	0	5
TAP	94	48	4
TAP	94	48	5
TAP	94	96	3
TAP	94	96	6
TAP	94	144	3
TAP	94	144	6
TAP	94	192	2
TAP	94	192	7
TAP	94	240	2
TAP	94	240	7
TAP	94	288	0
TAP	94	288	1
TAP	94	336	0
TAP	94	336	1
TAP	95	0	3
TAP	95	24	4
TAP	95	48	3
TAP	95	72	4
TAP	95	96	2
TAP	95	120	5
TAP	95	144	2
TAP	95	168	5
TAP	95	192	1
TAP	95	216	6
TAP	95	240	1
TAP	95	264	6
BRK	95	288	0
TAP	96	0	0
TAP	96	0	4
TAP	96	48	1
TAP	96	48	5
TAP	96	96	2
TAP	96	96	6
TAP	96	144	3
TAP	96	144	7
BST	96	192	0
SXR	96	192	0	96	1536	3
BST	96	192	4
SCR	96	192	4	96	1536	2

T_REC_TAP	364
T_REC_BRK	16
T_REC_XTP	0
T_REC_HLD	107
T_REC_XHO	0
T_REC_STR	114
T_REC_BST	2
T_REC_XST	0
T_REC_TTP	0
T_REC_THO	0
T_REC_SLD	118
T_REC_ALL	721
T_NUM_TAP	478
T_NUM_BRK	18
T_NUM_HLD	107
T_NUM_SLD	118
T_NUM_ALL	721
T_JUDGE_TAP	496
T_JUDGE_HLD	146
T_JUDGE_SLD	118
T_JUDGE_ALL	760
TTM_EACHPAIRS	174
TTM_SCR_TAP	239000
TTM_SCR_BRK	46800
TTM_SCR_HLD	107000
TTM_SCR_SLD	177000
TTM_SCR_ALL	569800
TTM_SCR_S	551000
TTM_SCR_SS	568000
TTM_RAT_ACV	10031

